Мужчина ищет женщину / Man Seeking Woman [S02] (2016) WEB-DL 720p от OZZ | P2

 
Автор Сообщение

Russian Mafia ®

Пол:

Стаж: 1 год 8 месяцев

Сообщений: 4252



Награды: 10 (Подробнее)

Mega Seeder 5 (Количество: 1) Mega Seeder 2 (Количество: 1) За внесенный вклад в развитие сайта (Количество: 1)
Торрент-статистика

Создавать темы 22-Мар-2016 17:37

[Цитировать]

Информация о фильме
Название: Мужчина ищет женщину
Оригинальное название: Man Seeking Woman
Год выхода: 2016
Жанр: фэнтези, мелодрама, комедия
Режиссер: Джонатан Крисел, Тим Киркби, Билл Бенц
В ролях: Джей Барушель, Бриттни Лоуэр, Майя Эрскин, Raeanna Guitard, Джефф Пэнгман, Adrian Rebucas, Джордан Клер Роббинс, Скотт Андерсон, Эрик Андре, Джим Армстронг
О фильме:
После расставания с любимой Джош решается найти настоящую любовь. Ему предстоит выдержать много трудностей: побывать на свидании с уродливым троллем, спуститься в ад, а также побывать в прошлом.

Страна: США
Продолжительность: ~00:24:00 серия
Перевод: Профессиональный двухголосый [Ozz]
Файл
Кодек: AVC
Качество: WEB-DL 720p
Видео: 1280x720, 23.976 fps, ~4000 kbps avg
Аудио 1: AC3, 6 channels, 384 Kbps [Русский]
Аудио 2: AC3, 6 channels, 384 Kbps [Английский]
Субтитры: Русские (Trotteville), Английские (srt)

MediaInfo

General
Unique ID : 249837701004493960811307679178404793238 (0xBBF4FDAF90597DFC9EE2090134660B96)
Complete name : /home/roma/Відео/Man.Seeking.Woman.S02.720p.WEB-DL.Rus.Eng.Ozz/Man.Seeking.Woman.S02E02.720p.WEB-DL.Rus.Eng.Ozz.mkv
Format : Matroska
Format version : Version 4 / Version 2
File size : 704 MiB
Duration : 21mn 28s
Overall bit rate : 4 581 Kbps
Encoded date : UTC 2016-01-29 11:01:43
Writing application : mkvmerge v6.3.0 ('You can't stop me!') built on Jun 28 2013 20:09:41
Writing library : libebml v1.3.0 + libmatroska v1.4.0
Video
ID : 1
Format : AVC
Format/Info : Advanced Video Codec
Format profile : High@L3.1
Format settings, CABAC : No
Format settings, ReFrames : 2 frames
Codec ID : V_MPEG4/ISO/AVC
Duration : 21mn 28s
Bit rate : 3 722 Kbps
Width : 1 280 pixels
Height : 720 pixels
Display aspect ratio : 16:9
Frame rate mode : Constant
Frame rate : 23.976 (24000/1001) fps
Color space : YUV
Chroma subsampling : 4:2:0
Bit depth : 8 bits
Scan type : Progressive
Bits/(Pixel*Frame) : 0.168
Stream size : 572 MiB (81%)
Language : English
Default : Yes
Forced : No
Color range : Limited
Color primaries : BT.709
Transfer characteristics : BT.709
Matrix coefficients : BT.709
Audio #1
ID : 2
Format : AC-3
Format/Info : Audio Coding 3
Mode extension : CM (complete main)
Format settings, Endianness : Big
Codec ID : A_AC3
Duration : 21mn 28s
Bit rate mode : Constant
Bit rate : 384 Kbps
Channel(s) : 6 channels
Channel positions : Front: L C R, Side: L R, LFE
Sampling rate : 48.0 KHz
Frame rate : 31.250 fps (1536 spf)
Compression mode : Lossy
Stream size : 59.0 MiB (8%)
Title : DVO Ozz-tv
Language : Russian
Default : Yes
Forced : No
Audio #2
ID : 3
Format : AC-3
Format/Info : Audio Coding 3
Mode extension : CM (complete main)
Format settings, Endianness : Big
Codec ID : A_AC3
Duration : 21mn 28s
Bit rate mode : Constant
Bit rate : 384 Kbps
Channel(s) : 6 channels
Channel positions : Front: L C R, Side: L R, LFE
Sampling rate : 48.0 KHz
Frame rate : 31.250 fps (1536 spf)
Compression mode : Lossy
Delay relative to video : 200ms
Stream size : 59.0 MiB (8%)
Language : English
Default : No
Forced : No
Text #1
ID : 4
Format : UTF-8
Codec ID : S_TEXT/UTF8
Codec ID/Info : UTF-8 Plain Text
Title : Trotteville
Language : Russian
Default : No
Forced : No
Text #2
ID : 5
Format : UTF-8
Codec ID : S_TEXT/UTF8
Codec ID/Info : UTF-8 Plain Text
Language : English
Default : No
Forced : No
Семпл

Скриншоты

Релиз от: Ozz
[Профиль] [ЛС]
Кто просматривает тему:

Форум Тема Автор Размер
Pop (Pop) Натали - О, Боже, какой мужчина! - 2016 [FLAC, tracks +.cue, lossless] sergej644 469 MB
50/50 (РОР) VA - Мужчины любят бла-бла-бла. Попсовый - 2015, MP3, 320 kbps Magnat 686 MB
XXXI Летние Олимпийские игры. Рио-де-Жанейро 2016 (Бразилия) XXXI Летние Олимпийские игры в Рио. Бокс. Мужчины.[52, 64, Свыше 91 кг] Женщины [75, 60 кг] (2016) SATRip достали все 2.09 GB
XXXI Летние Олимпийские игры. Рио-де-Жанейро 2016 (Бразилия) XXXI Летние Олимпийские Игры. Баскетбол. Мужчины. Полуфинал. Австралия - Сербия [Матч Игра] [19.08] (2016) HDTV 1080i BOSS 8 GB
XXXI Летние Олимпийские игры. Рио-де-Жанейро 2016 (Бразилия) XXXI Летние Олимпийские Игры. Баскетбол. Мужчины. Полуфинал. Испания - США [Матч Игра] [19.08] (2016) HDTV 1080i BOSS 7.05 GB
XXXI Летние Олимпийские игры. Рио-де-Жанейро 2016 (Бразилия) XXXI Летние Олимпийские Игры. Волейбол. Мужчины. 1/4 финала. Россия - Канада [Матч Игра HD] (2016) HDTV 1080i достали все 4.21 GB
XXXI Летние Олимпийские игры. Рио-де-Жанейро 2016 (Бразилия) XXXI Летние Олимпийские Игры. Волейбол. Мужчины. 1/4 финала. США - Польша [Матч Игра HD] (2016) HDTV 1080i от GeneralFilm BOSS 4.94 GB
XXXI Летние Олимпийские игры. Рио-де-Жанейро 2016 (Бразилия) XXXI Летние Олимпийские Игры. Рио-де-Жанейро (Бразилия). Академическая гребля. Мужчины. Женщины. Квалификация, утро [09.08] (2016) IPTV 1080i BOSS 4.86 GB
Показать сообщения:    

Текущее время: Сегодня 08:51

Часовой пояс: GMT



Вы не можете начинать темы
Вы не можете отвечать на сообщения
Вы не можете редактировать свои сообщения
Вы не можете удалять свои сообщения
Вы не можете голосовать в опросах
Вы не можете прикреплять файлы к сообщениям
Вы не можете скачивать файлы