Мужики за работой / Men at Work [S02] (2013) WEB-DL 720p

 
Автор Сообщение

Russian Mafia ®

Пол:

Стаж: 1 год 8 месяцев

Сообщений: 4256



Награды: 10 (Подробнее)

Mega Seeder 3 (Количество: 1) Mega Seeder 2 (Количество: 1) Mega Seeder 5 (Количество: 1)
Торрент-статистика

Создавать темы 10-Окт-2015 08:38

[Цитировать]

Год выпуска: 2013
Страна: США
Студия: Sony Pictures Television Inc.
Жанр: ситком
Продолжительность: ~22 мин.-Перевод: Многоголосый закадровый - [Несмертельное оружие]
Русские субтитры: нет-Режиссёр: Марк Сендроуски / Mark Cendrowski
В ролях: Дэнни Мастерсон, Джеймс Лежер, Майкл Кэссиди, Адам Буш, Мередит Хагнер, Эми Смарт, Норин ДеВулф, Джулиан Морри,с Стефани Николь Лемелин, Метте Холт, Доминик Девор, Эмили Фокслер, Памела Мари, Майкл Дидрикссон, Мелисса Клер Иган, Нора Киркпатрик и др.
Описание: Главные персонажи сериала — работающий в престижном журнале парень по имени Майло и трое его друзей — Нил, Гиббс и Тайлер. После того, как Майло бросила девушка, они помогают ему справиться с депрессией и обрести уверенность в себе; правда, у самих друзей в личной жизни при этом тоже не все гладко.-
Релиз от: -СЭМПЛ!
Качество: WEB-DL 720p
Формат: MKV
Видео кодек: H.264
Аудио кодек: AC3
Видео: H.264, 1280x720 (16:9), 23.976 fps, ~3933 Kbps, 0.178 bit/pixel
Аудио #1: 48 kHz, AC3 Dolby Digital, 3/2 (L,C,R,l,r) + LFE ch, ~384.00 kbps avg | Russian | MVO
Аудио #2: 48 kHz, AC3 Dolby Digital, 3/2 (L,C,R,l,r) + LFE ch, ~384.00 kbps avg | English | Original-

Список серий:

Эпизод: 01
«Упущенная возможность» (Missed Connections)
Эпизод: 02
«Сработает для Майло» (Will Work for Milo)
Эпизод: 03
«Новый босс» (The New Boss)
Эпизод: 04
«Сбавить обороты» (Downshift)
Эпизод: 05
«Хороший, плохой и Майло» (The Good, The Bad & The Milo)
Эпизод: 06
«Пионер Тайлер» (Tyler the Pioneer)
Эпизод: 07
«Дядюшка Гиббс» (Uncle Gibbs)
Эпизод: 08
«Гиббсорцизм» (The Gibbs-Orcism)
Эпизод: 09
«Пробуждение Джуд» (Jude Awakening)
Эпизод: 10
«Майло-пятое колесо» (Odd Milo Out)

Скриншоты

MediaInfo

General
Unique ID : 237770784958573046945267710076993759948 (0xB2E0FCCA853EAC06AD4606B5FFE56ACC)
Complete name : Men.At.Work.S02E01.Missed.Connections.WEB-DL.720p.H.264.RUS.-Nesmertelnoe.oruzhie.mkv
Format : Matroska
Format version : Version 2
File size : 726 MiB
Duration : 21mn 10s
Overall bit rate : 4 796 Kbps
Movie name : Мужики за работой / Сезон: 2 / Эпизод: 01 - Упущенная возможность
Encoded date : UTC 2013-04-17 16:17:40
Writing application : mkvmerge v5.2.1 ('A Far Off Place') built on Jan 2 2012 23:21:10
Writing library : libebml v1.2.3 + libmatroska v1.3.0
Video
ID : 1
Format : AVC
Format/Info : Advanced Video Codec
Format profile : High@L3.1
Format settings, CABAC : No
Format settings, ReFrames : 2 frames
Codec ID : V_MPEG4/ISO/AVC
Duration : 21mn 10s
Bit rate : 3 933 Kbps
Width : 1 280 pixels
Height : 720 pixels
Display aspect ratio : 16:9
Frame rate : 23.976 fps
Color space : YUV
Chroma subsampling : 4:2:0
Bit depth : 8 bits
Scan type : Progressive
Bits/(Pixel*Frame) : 0.178
Stream size : 596 MiB (82%)
Language : English
Default : Yes
Forced : No
Color primaries : BT.709-5, BT.1361, IEC 61966-2-4, SMPTE RP177
Transfer characteristics : BT.709-5, BT.1361
Matrix coefficients : BT.709-5, BT.1361, IEC 61966-2-4 709, SMPTE RP177
Audio #1
ID : 2
Format : AC-3
Format/Info : Audio Coding 3
Mode extension : CM (complete main)
Codec ID : A_AC3
Duration : 21mn 10s
Bit rate mode : Constant
Bit rate : 384 Kbps
Channel(s) : 6 channels
Channel positions : Front: L C R, Side: L R, LFE
Sampling rate : 48.0 KHz
Bit depth : 16 bits
Compression mode : Lossy
Stream size : 58.2 MiB (8%)
Title : MVO (Несмертельное оружие)
Language : Russian
Default : Yes
Forced : No
Audio #2
ID : 3
Format : AC-3
Format/Info : Audio Coding 3
Mode extension : CM (complete main)
Codec ID : A_AC3
Duration : 21mn 10s
Bit rate mode : Constant
Bit rate : 384 Kbps
Channel(s) : 6 channels
Channel positions : Front: L C R, Side: L R, LFE
Sampling rate : 48.0 KHz
Bit depth : 16 bits
Compression mode : Lossy
Stream size : 58.2 MiB (8%)
Title : Original
Language : English
Default : No
Forced : No

Внимание! Раздача ведётся путём добавления новых серий!

Внимание! Раздача ведётся путём добавления новых серий; при каждом добавлении создётся новый торрент. Чтобы начать докачку новой серии, пользователям необходимо сделать следующее:
(1) остановить скачивание,
(2) удалить старый торрент у себя из клиента (старые серии удалять не надо),
(3) скачать новый торрент и запустить его у себя в клиенте вместо старого, при этом указать клиенту путь в старую папку куда и должно происходить скачивание новых серий.
Ваш клиент при этом должен произвести хеширование (проверку) старой папки (если не производит сам - помогите ему сделать это), и будет докачивать только те серии которых у вас ещё нет. Старые серии при этом не удаляются, а продолжают раздаваться!
Eсли вы уже удалили старые серии, то предотвратить повторную закачку старых серий можно, отжав галочку в соответсвующих местах при запуске нового торрента. По возможности, желательно не удалять старые серии как можно дольше чтобы релизёр не столько продолжал раздавать старые серии, а смог сконцентрироваться на новых.
[Профиль] [ЛС]
Кто просматривает тему:

Форум Тема Автор Размер
Фильмы 2015 года Будь мужчиной / Будь мужиком / Man Up (Бен Палмер / Ben Palmer) [2015, Великобритания, Франция, романтическая мелодрама, комедия, HDRip] Sub Rus + Original Eng TorrentFilm 1.41 GB
Фильмы 2011 года Крутые мужики / Tough Guys (Джеф Кэнью) [1986 г., комедия, WEB-DLRip] [DUB, MVO] Bathory 1.46 GB
Отечественные мультфильмы Лиса, медведь и мужик (Виктор Довнар) [1982, Кукольный мультфильм, VHSRip] TorrentFilm 142 MB
Зарубежные сериалы Мужики за работой / Men at Work [S02] (2013) WEB-DLRip Russian Mafia 3.42 GB
Фильмы 2015 года Мужики и куры / Mænd og høns (Андерс Томас Йенсен / Anders Thomas Jensen) [2015, Дания, Германия, комедия, драма, HDRip-AVC] Rus Sub TorrentFilm 1.65 GB
Фильмы 2015 года Мужики и куры / Mænd og høns (Андерс Томас Йенсен / Anders Thomas Jensen) [2015, Дания, Германия, комедия, драма, HDRip-AVC] VO (Vaxywod) TorrentFilm 1.51 GB
Фильмы 2015 года Мужики и куры / Мужчины и куры / Maend og hons (2015) HDRip | L1 BOSS 2.05 GB
Кино СССР Мужики!... (1981) DVDRip-AVC sergej644 1.73 GB
Показать сообщения:    

Текущее время: Сегодня 08:12

Часовой пояс: GMT



Вы не можете начинать темы
Вы не можете отвечать на сообщения
Вы не можете редактировать свои сообщения
Вы не можете удалять свои сообщения
Вы не можете голосовать в опросах
Вы не можете прикреплять файлы к сообщениям
Вы не можете скачивать файлы