Мстители: Эра Альтрона / Avengers: Age of Ultron (2015) BDRemux 1080p

 
Автор Сообщение

BOSS ®

Пол:

Стаж: 2 года 1 месяц

Сообщений: 3732

Откуда: ODESSA



Награды: 20 (Подробнее)

Top Keeper 4 (Количество: 1) Mega Seeder 4 (Количество: 1) Top Keeper 1 (Количество: 1)
Торрент-статистика

Создавать темы 28-Сен-2015 12:55

[Цитировать]

«A new age begins»

Год выпуска: 2015
Производство: США / Marvel Studios Inc.
Жанр: фантастика, боевик, приключения
Режиссер: Джосс Уидон
Продюсеры: Кевин Файги, Виктория Алонсо, Митчелл Белл
Актеры: Роберт Дауни мл., Крис Хемсворт, Крис Эванс, Скарлетт Йоханссон, Марк Руффало, Джереми Реннер, Аарон Тейлор-Джонсон, Элизабет Олсен, Джеймс Спэйдер, Сэмюэл Л. Джексон
Описание фильма:
Человечество на грани уничтожения. На этот раз людям угрожает Альтрон — искусственный интеллект, ранее созданный для того, чтобы защищать Землю от любых угроз. Однако, главной угрозой он посчитал человечество. Международная организация Щ. И. Т. распалась, и теперь мир не способен справиться с таким мощным врагом, потому люди вновь обращаются за помощью к Величайшим Героям Земли — Мстителям. Однако Альтрон слишком силен, и есть большая вероятность, что даже им не удастся остановить начало надвигающейся Эры Альтрона, где нет места для людей…
Перевод: Дублированный [лицензия]
Субтитры: Русские, английские-Дата мировой премьеры: 13 апреля 2015
Дата российской премьеры: 23 апреля 2015, «WDSSPR»
Дата выхода DVD/Blu-Ray релиза: 2 октября 2015, «Уолт Дисней Компани СНГ»
-Продолжительность: 02:21:18
Качество видео: BDRemux [1080p]
Видео: MPEG-4 AVC/H.264, 1920x1080 (16:9), ~23741 Кбит/сек
Аудио 1: AC3 5.1, 640 Кбит/сек [Русский - дублированный]
Аудио 2: DTS-HD MA 7.1, 4229 Кбит/сек [Английский - оригинал]
Аудио 3: AC3 2.0, 320 Кбит/сек [Английский - описательный]
Аудио 4: AC3 2.0, 192 Кбит/сек [Английский - комментарий]

MediaInfo:

Общее
Уникальный идентификатор : 190727765168668881873451258337216246324 (0x8F7CD4D7B5318A9BAFB8B1F9B0593234)
Полное имя : F:ВидеоAvengers. Age of Ultron (2015) BDRemux.mkv
Формат : Matroska
Версия формата : Version 4 / Version 2
Размер файла : 28,5 Гбайт
Продолжительность : 2 ч. 21 м.
Режим общего битрейта : Переменный
Общий поток : 28,9 Мбит/сек
Дата кодирования : UTC 2015-09-27 12:48:58
Программа кодирования : mkvmerge v8.3.0 ('Over the Horizon') 64bit
Библиотека кодирования : libebml v1.3.1 + libmatroska v1.4.2
DURATION : 02:12:47.376000000
NUMBER_OF_FRAMES : 1857
NUMBER_OF_BYTES : 54625
_STATISTICS_WRITING_APP : mkvmerge v8.3.0 ('Over the Horizon') 64bit
_STATISTICS_WRITING_DATE_UTC : 2015-09-27 12:48:58
_STATISTICS_TAGS : BPS DURATION NUMBER_OF_FRAMES NUMBER_OF_BYTES
Видео
Идентификатор : 1
Формат : AVC
Формат/Информация : Advanced Video Codec
Профиль формата : High@L4.1
Параметр CABAC формата : Да
Параметр ReFrames формата : 4 кадра
Идентификатор кодека : V_MPEG4/ISO/AVC
Продолжительность : 2 ч. 21 м.
Вид битрейта : Переменный
Максимальный битрейт : 34,0 Мбит/сек
Ширина : 1920 пикселей
Высота : 1080 пикселей
Соотношение сторон : 16:9
Режим частоты кадров : Постоянный
Частота кадров : 23,976 кадра/сек
Цветовое пространство : YUV
Субдискретизация насыщенности : 4:2:0
Битовая глубина : 8 бит
Тип развёртки : Прогрессивная
Default : Да
Forced : Нет
Аудио #1
Идентификатор : 2
Формат : AC-3
Формат/Информация : Audio Coding 3
Расширение режима : CM (complete main)
Параметр Endianness формата : Big
Идентификатор кодека : A_AC3
Продолжительность : 2 ч. 21 м.
Вид битрейта : Постоянный
Битрейт : 640 Кбит/сек
Каналы : 6 каналов
Расположение каналов : Front: L C R, Side: L R, LFE
Частота : 48,0 КГц
Битовая глубина : 16 бит
Метод сжатия : С потерями
Размер потока : 647 Мбайт (2%)
Язык : Russian
Default : Да
Forced : Нет
Аудио #2
Идентификатор : 3
Формат : DTS
Формат/Информация : Digital Theater Systems
Профиль формата : MA / Core
Режим : 16
Параметр Endianness формата : Big
Идентификатор кодека : A_DTS
Продолжительность : 2 ч. 21 м.
Вид битрейта : Переменный
Битрейт : Неизвестно / 1509 Кбит/сек
Каналы : 8 каналов / 6 каналов
Расположение каналов : Front: L C R, Side: L R, Back: L R, LFE / Front: L C R, Side: L R, LFE
Частота : 48,0 КГц
Битовая глубина : 24 бит
Метод сжатия : Без потерь / Lossy
Язык : English
Default : Нет
Forced : Нет
Аудио #3
Идентификатор : 4
Формат : AC-3
Формат/Информация : Audio Coding 3
Профиль формата : Dolby Digital
Расширение режима : CM (complete main)
Параметр Endianness формата : Big
Идентификатор кодека : A_AC3
Продолжительность : 2 ч. 21 м.
Вид битрейта : Постоянный
Битрейт : 320 Кбит/сек
Каналы : 2 канала
Расположение каналов : Front: L R
Частота : 48,0 КГц
Битовая глубина : 16 бит
Метод сжатия : С потерями
Размер потока : 323 Мбайт (1%)
Язык : English
Default : Нет
Forced : Нет
Аудио #4
Идентификатор : 5
Формат : AC-3
Формат/Информация : Audio Coding 3
Расширение режима : CM (complete main)
Параметр Endianness формата : Big
Идентификатор кодека : A_AC3
Продолжительность : 2 ч. 21 м.
Вид битрейта : Постоянный
Битрейт : 192 Кбит/сек
Каналы : 2 канала
Расположение каналов : Front: L R
Частота : 48,0 КГц
Битовая глубина : 16 бит
Метод сжатия : С потерями
Размер потока : 194 Мбайт (1%)
Язык : English
Default : Нет
Forced : Нет
Текст #1
Идентификатор : 6
Формат : UTF-8
Идентификатор кодека : S_TEXT/UTF8
Идентификатор кодека/Информация : UTF-8 Plain Text
Заголовок : Forced
Язык : Russian
Default : Да
Forced : Нет
Текст #2
Идентификатор : 7
Формат : UTF-8
Идентификатор кодека : S_TEXT/UTF8
Идентификатор кодека/Информация : UTF-8 Plain Text
Заголовок : Full
Язык : Russian
Default : Нет
Forced : Нет
Текст #3
Идентификатор : 8
Формат : UTF-8
Идентификатор кодека : S_TEXT/UTF8
Идентификатор кодека/Информация : UTF-8 Plain Text
Заголовок : Full
Язык : English
Default : Нет
Forced : Нет
Меню
00:00:00.000 : en:Battle for Loki's Scepter
00:12:15.192 : en:Birth of Ultron
00:21:23.949 : en:Avengers House Party
00:33:01.771 : en:Attack Aftermath
00:36:07.623 : en:Ultron Meers the Twins
00:42:00.768 : en:Mind Games
00:52:44.744 : en:Hulk vs. Hulkbuster
00:59:01.871 : en:The Safe House
01:15:51.088 : en:Cradle Robbing
01:27:08.598 : en:Birthof the Vision
01:36:44.757 : en:The Battle of Sokovia
01:54:35.326 : en:"Is That the Best You Can Do?"
02:06:27.580 : en:The New Avengers
02:11:08.026 : en:End Credits
Скриншоты:
[Профиль] [ЛС]
Кто просматривает тему:

Форум Тема Автор Размер
Горячие Новинки LEGO: Marvel\'s Avengers / LEGO: Marvel Мстители [L] [RUS|Multi10 / ENG|Multi6] (2016) TorrentFilm 13.21 GB
Фильмы 2016 года Дневники мстителя / Vigilante Diaries (2016) HDRip | L1 BOSS 2.05 GB
Отечественные мультсериалы Маша и Медведь: Неуловимые мстители [51] (2014) WEBRip от ExKinoRay | Sub достали все 108 MB
Отечественные мультсериалы Маша и медведь: Неуловимые мстители [51] (2015) WEB-DLRip достали все 106 MB
Фильмы (HD DVD, Blu-ray и BDRemux) Мстители / The Avengers (1998) BDRemux 1080p от MediaClub | D, A sergej644 18.58 GB
Фильмы (HD Rips | 720p, 1080p) Мстители / The Avengers (2012) BDRip 720p | Лицензия Russian Mafia 7.76 GB
Зарубежные Мстители 3Д / The Avengers 3D (Джосс Уидон / Joss Whedon) [2012 г., США, фантастика, боевик, приключения, Blu-ray Disc 1080p] BD3D TorrentFilm 41.08 GB
Зарубежные Мстители 3Д / The Avengers 3D (Джосс Уидон / Joss Whedon) [2012, США, фантастика, фэнтези, боевик, приключения, BDRip-avc] Dub (CEE) + AVO (Ю.Сербин) + Dub (Ukr) + Original (Eng) + Sub (Rus, Ukr,... TorrentFilm 20.13 GB
Показать сообщения:    

Текущее время: Сегодня 16:21

Часовой пояс: GMT



Вы не можете начинать темы
Вы не можете отвечать на сообщения
Вы не можете редактировать свои сообщения
Вы не можете удалять свои сообщения
Вы не можете голосовать в опросах
Вы не можете прикреплять файлы к сообщениям
Вы не можете скачивать файлы