Мстители: Эра Альтрона / Avengers: Age of Ultron (2015) BDRip 720p от BLUEBIRD | D

 
Автор Сообщение

Russian Mafia ®

Пол:

Стаж: 1 год 8 месяцев

Сообщений: 4256



Награды: 10 (Подробнее)

Top Releaser 4 (Количество: 1) Mega Seeder 1 (Количество: 1) Mega Seeder 5 (Количество: 1)
Торрент-статистика

Создавать темы 10-Сен-2015 15:16

[Цитировать]

Мстители: Эра Альтрона / Avengers: Age of Ultron
Страна: США
Год выпуска: 2015
Жанр: фантастика, боевик, приключения
Продолжительность: 02:21:19
Перевод: Профессиональный (полное дублирование)
Режиссер: Джосс Уидон / Joss Whedon
Актеры: Роберт Дауни мл., Крис Хемсворт, Крис Эванс, Скарлетт Йоханссон, Марк Руффало, Джереми Реннер, Аарон Тейлор-Джонсон, Элизабет Олсен, Джеймс Спэйдер, Сэмюэл Л. Джексон
Роли дублировали: Владимир Зайцев, Иван Жарков, Даниил Эльдаров, Татьяна Шитова, Алексей Мясников
Описание фильма: Человечество на грани уничтожения. На этот раз людям угрожает Альтрон — искусственный интеллект, ранее созданный для того, чтобы защищать Землю от любых угроз. Однако, главной угрозой он посчитал человечество. Международная организация Щ. И. Т. распалась, и теперь мир не способен справиться с таким мощным врагом, потому люди вновь обращаются за помощью к Величайшим Героям Земли — Мстителям. Однако Альтрон слишком силен, и есть большая вероятность, что даже им не удастся остановить начало надвигающейся Эры Альтрона, где нет места для людей…

Файл
Качество видео: BDRip 720p Исходник: Blu-ray
Видео: MPEG-4 AVC, 4318 Кбит/с, 1280x536, 23.976 кадр/с [BLUEBIRD]
Аудио:
Русский (DTS, 6 ch, 1509 Кбит/с)
Украинский (DTS, 6 ch, 1509 Кбит/с)
Английский (DTS, 6 ch, 1509 Кбит/с)
Английский AC3 2.0 @ 320 Kbps [Deive]
Английский AC3 2.0 @ 192 Kbps [Audio Commentary With Director Joss Whedon]
Субтитры: Русские (forced + full [два варианта]), украинские, английские
Релиз:

Скриншоты


Звук

Получен переналожением участков с речью и отзвуками/эхом на каналы английской хд дорожки, кроме LFE (оставлен с оригинала).
Громкость разная между дорожками (между всеми), в английской, для "получения общего знаменателя" громкость повышена от 3 до 4 дБ (в пределах разумного и во избежание клиппинга).

MediaInfo

Общее
Уникальный идентификатор : 253686523700584678231251103819239672699 (0xBEDA3F4BA939CEA7A405898DEA824B7B)
Полное имя : G:Avengers.Age.of.Ultron.2015.BDRip.720p.BLUEBIRD.mkv
Формат : Matroska
Версия формата : Version 2
Размер файла : 7,92 Гбайт
Продолжительность : 2 ч. 21 м.
Общий поток : 8007 Кбит/сек
Название фильма : BLUEBIRD
Дата кодирования : UTC 2015-09-09 18:36:46
Программа кодирования : mkvmerge v7.9.0 ('Birds') 64bit
Библиотека кодирования : libebml v1.3.1 + libmatroska v1.4.2
Видео
Идентификатор : 1
Формат : AVC
Формат/Информация : Advanced Video Codec
Профиль формата : High@L4.1
Параметр CABAC формата : Да
Параметр ReFrames формата : 12 кадров
Идентификатор кодека : V_MPEG4/ISO/AVC
Продолжительность : 2 ч. 21 м.
Битрейт : 4318 Кбит/сек
Ширина : 1280 пикселей
Высота : 536 пикселей
Соотношение сторон : 2,40:1
Режим частоты кадров : Постоянный
Частота кадров : 23,976 кадра/сек
Цветовое пространство : YUV
Субдискретизация насыщенности : 4:2:0
Битовая глубина : 8 бит
Тип развёртки : Прогрессивная
Бит/(Пиксели*Кадры) : 0.262
Размер потока : 4,27 Гбайт (54%)
Заголовок : BLUEBIRD
Библиотека кодирования : x264 core 148 r2597 e86f3a1
Настройки программы : cabac=1 / ref=12 / deblock=1:-3:-3 / analyse=0x3:0x133 / me=umh / subme=11 / psy=1 / psy_rd=1.00:0.00 / mixed_ref=1 / me_range=32 / chroma_me=1 / trellis=2 / 8x8dct=1 / cqm=0 / deadzone=21,11 / fast_pskip=0 / chroma_qp_offset=-2 / threads=12 / lookahead_threads=2 / sliced_threads=0 / nr=0 / decimate=0 / interlaced=0 / bluray_compat=0 / constrained_intra=0 / bframes=9 / b_pyramid=2 / b_adapt=2 / b_bias=0 / direct=1 / weightb=1 / open_gop=1 / weightp=2 / keyint=240 / keyint_min=23 / scenecut=40 / intra_refresh=0 / rc=crf / mbtree=0 / crf=16.0 / qcomp=0.60 / qpmin=0 / qpmax=69 / qpstep=4 / ip_ratio=1.40 / pb_ratio=1.30 / aq=3:0.80
Язык : English
Default : Да
Forced : Нет
Аудио #1
Идентификатор : 2
Формат : DTS
Формат/Информация : Digital Theater Systems
Режим : 16
Параметр Endianness формата : Big
Идентификатор кодека : A_DTS
Продолжительность : 2 ч. 21 м.
Вид битрейта : Постоянный
Битрейт : 1509 Кбит/сек
Каналы : 6 каналов
Расположение каналов : Front: L C R, Side: L R, LFE
Частота : 48,0 КГц
Битовая глубина : 24 бит
Метод сжатия : С потерями
Размер потока : 1,49 Гбайт (19%)
Язык : Russian
Default : Да
Forced : Нет
Аудио #2
Идентификатор : 3
Формат : DTS
Формат/Информация : Digital Theater Systems
Режим : 16
Параметр Endianness формата : Big
Идентификатор кодека : A_DTS
Продолжительность : 2 ч. 21 м.
Вид битрейта : Постоянный
Битрейт : 1509 Кбит/сек
Каналы : 6 каналов
Расположение каналов : Front: L C R, Side: L R, LFE
Частота : 48,0 КГц
Битовая глубина : 24 бит
Метод сжатия : С потерями
Размер потока : 1,49 Гбайт (19%)
Язык : Ukrainian
Default : Нет
Forced : Нет
Аудио #3
Идентификатор : 4
Формат : AC-3
Формат/Информация : Audio Coding 3
Профиль формата : Dolby Digital
Расширение режима : CM (complete main)
Параметр Endianness формата : Big
Идентификатор кодека : A_AC3
Продолжительность : 2 ч. 21 м.
Вид битрейта : Постоянный
Битрейт : 320 Кбит/сек
Каналы : 2 канала
Расположение каналов : Front: L R
Частота : 48,0 КГц
Метод сжатия : С потерями
Размер потока : 324 Мбайт (4%)
Заголовок : Deive
Язык : English
Default : Нет
Forced : Нет
Аудио #4
Идентификатор : 5
Формат : AC-3
Формат/Информация : Audio Coding 3
Расширение режима : CM (complete main)
Параметр Endianness формата : Big
Идентификатор кодека : A_AC3
Продолжительность : 2 ч. 21 м.
Вид битрейта : Постоянный
Битрейт : 192 Кбит/сек
Каналы : 2 канала
Расположение каналов : Front: L R
Частота : 48,0 КГц
Метод сжатия : С потерями
Размер потока : 195 Мбайт (2%)
Заголовок : Audio Commentary With Director Joss Whedon
Язык : English
Default : Нет
Forced : Нет
Текст #1
Идентификатор : 6
Формат : UTF-8
Идентификатор кодека : S_TEXT/UTF8
Идентификатор кодека/Информация : UTF-8 Plain Text
Заголовок : Forced
Язык : Russian
Default : Да
Forced : Нет
Текст #2
Идентификатор : 7
Формат : UTF-8
Идентификатор кодека : S_TEXT/UTF8
Идентификатор кодека/Информация : UTF-8 Plain Text
Заголовок : Full
Язык : Russian
Default : Нет
Forced : Нет
Текст #3
Идентификатор : 8
Формат : UTF-8
Идентификатор кодека : S_TEXT/UTF8
Идентификатор кодека/Информация : UTF-8 Plain Text
Заголовок : Full
Язык : Ukrainian
Default : Нет
Forced : Нет
Текст #4
Идентификатор : 9
Формат : UTF-8
Идентификатор кодека : S_TEXT/UTF8
Идентификатор кодека/Информация : UTF-8 Plain Text
Заголовок : Full
Язык : English
Default : Нет
Forced : Нет
Меню
00:00:00.000 : en:Battle for Loki's Scepter
00:12:15.192 : en:Birth of Ultron
00:21:23.949 : en:Avengers House Party
00:33:01.771 : en:Attack Aftermath
00:36:07.623 : en:Ultron Meers the Twins
00:42:00.768 : en:Mind Games
00:52:44.744 : en:Hulk vs. Hulkbuster
00:59:01.871 : en:The Safe House
01:15:51.088 : en:Cradle Robbing
01:27:08.598 : en:Birthof the Vision
01:36:44.757 : en:The Battle of Sokovia
01:54:35.326 : en:"Is That the Best You Can Do?"
02:06:27.580 : en:The New Avengers
02:11:08.026 : en:End Credits
[Профиль] [ЛС]
Кто просматривает тему:

Форум Тема Автор Размер
Горячие Новинки LEGO: Marvel\'s Avengers / LEGO: Marvel Мстители [L] [RUS|Multi10 / ENG|Multi6] (2016) TorrentFilm 13.21 GB
Фильмы 2016 года Дневники мстителя / Vigilante Diaries (2016) HDRip | L1 BOSS 2.05 GB
Отечественные мультсериалы Маша и Медведь: Неуловимые мстители [51] (2014) WEBRip от ExKinoRay | Sub достали все 108 MB
Отечественные мультсериалы Маша и медведь: Неуловимые мстители [51] (2015) WEB-DLRip достали все 106 MB
Фильмы (HD DVD, Blu-ray и BDRemux) Мстители / The Avengers (1998) BDRemux 1080p от MediaClub | D, A sergej644 18.58 GB
Фильмы (HD Rips | 720p, 1080p) Мстители / The Avengers (2012) BDRip 720p | Лицензия Russian Mafia 7.76 GB
Зарубежные Мстители 3Д / The Avengers 3D (Джосс Уидон / Joss Whedon) [2012 г., США, фантастика, боевик, приключения, Blu-ray Disc 1080p] BD3D TorrentFilm 41.08 GB
Зарубежные Мстители 3Д / The Avengers 3D (Джосс Уидон / Joss Whedon) [2012, США, фантастика, фэнтези, боевик, приключения, BDRip-avc] Dub (CEE) + AVO (Ю.Сербин) + Dub (Ukr) + Original (Eng) + Sub (Rus, Ukr,... TorrentFilm 20.13 GB
Показать сообщения:    

Текущее время: Сегодня 18:34

Часовой пояс: GMT



Вы не можете начинать темы
Вы не можете отвечать на сообщения
Вы не можете редактировать свои сообщения
Вы не можете удалять свои сообщения
Вы не можете голосовать в опросах
Вы не можете прикреплять файлы к сообщениям
Вы не можете скачивать файлы