Мстители: Эра Альтрона / Avengers: Age of Ultron (2015) BDRip 720p | iTunes

 
Автор Сообщение

Russian Mafia ®

Пол:

Стаж: 1 год 8 месяцев

Сообщений: 4257



Награды: 10 (Подробнее)

За внесенный вклад в развитие сайта (Количество: 1) Mega Seeder 4 (Количество: 1) Mega Seeder 5 (Количество: 1)
Торрент-статистика

Создавать темы 08-Сен-2015 04:21

[Цитировать]

Информация о фильме
Название: Мстители: Эра Альтрона
Оригинальное название: Avengers: Age of Ultron
Год выхода: 2015
Жанр: фантастика, боевик, триллер, приключения
Режиссер: Джосс Уидон
В ролях: Роберт Дауни мл., Крис Хемсворт, Крис Эванс, Скарлетт Йоханссон, Марк Руффало, Джереми Реннер, Аарон Тейлор-Джонсон, Элизабет Олсен, Джеймс Спэйдер, Сэмюэл Л. Джексон
О фильме: Человечество на грани уничтожения. На этот раз людям угрожает Альтрон - искусственный интеллект, ранее созданный для того, чтобы защищать Землю от любых угроз. Однако, главной угрозой он посчитал человечество. Международная организация Щ. И. Т. распалась, и теперь мир не способен справиться с таким мощным врагом, потому люди вновь обращаются за помощью к Величайшим Героям Земли - Мстителям. Однако Альтрон слишком силен, и есть большая вероятность, что даже им не удастся остановить начало надвигающейся Эры Альтрона, где нет места для людей...


Выпущено: США / Marvel Studios
Продолжительность: 02:21:38
Озвучивание: Дублированное [iTunes]
Файл
Формат: MKV (x264)
Качество: BDRip 720p
Видео: 5130 kb/s, 1280x536
Аудио: Russian: AC3, 384 kb/s (6 ch) / English: DTS, 1510 kb/s (6 ch)
Размер: 6.94 GB
Скачать: Сэмпл---

Media Info

General
Unique ID : 251050934338713444608395819598280635503 (0xBCDEA6B51AB2EAB9A8C05D38BAA7B46F)
Complete name : Avengers.Age.of.Ultron.2015.720p.BluRay.x264-messafan.mkv
Format : Matroska
Format version : Version 4 / Version 2
File size : 6.93 GiB
Duration : 2h 21mn
Overall bit rate : 7 025 Kbps
Movie name : Avengers: Age of Ultron (2015) - release by messafan for piratbit
Encoded date : UTC 2015-09-07 21:55:02
Writing application : mkvmerge v6.7.0 ('Back to the Ground') 64bit built on Jan 8 2014 15:10:52
Writing library : libebml v1.3.0 + libmatroska v1.4.1
Video
ID : 1
Format : AVC
Format/Info : Advanced Video Codec
Format profile : High@L4.1
Format settings, CABAC : Yes
Format settings, ReFrames : 5 frames
Codec ID : V_MPEG4/ISO/AVC
Duration : 2h 21mn
Bit rate : 5 130 Kbps
Width : 1 280 pixels
Height : 536 pixels
Display aspect ratio : 2.40:1
Frame rate mode : Constant
Frame rate : 23.976 fps
Color space : YUV
Chroma subsampling : 4:2:0
Bit depth : 8 bits
Scan type : Progressive
Bits/(Pixel*Frame) : 0.312
Stream size : 4.93 GiB (71%)
Writing library : x264 core 148 r2597 e86f3a1
Encoding settings : cabac=1 / ref=5 / deblock=1:0:0 / analyse=0x3:0x133 / me=umh / subme=7 / psy=1 / psy_rd=1.00:0.00 / mixed_ref=1 / me_range=16 / chroma_me=1 / trellis=1 / 8x8dct=1 / cqm=0 / deadzone=21,11 / fast_pskip=0 / chroma_qp_offset=-2 / threads=12 / lookahead_threads=2 / sliced_threads=0 / nr=0 / decimate=1 / interlaced=0 / bluray_compat=0 / constrained_intra=0 / bframes=3 / b_pyramid=2 / b_adapt=1 / b_bias=0 / direct=1 / weightb=1 / open_gop=0 / weightp=2 / keyint=250 / keyint_min=23 / scenecut=40 / intra_refresh=0 / rc_lookahead=40 / rc=2pass / mbtree=1 / bitrate=5130 / ratetol=1.0 / qcomp=0.60 / qpmin=0 / qpmax=69 / qpstep=4 / cplxblur=20.0 / qblur=0.5 / ip_ratio=1.40 / aq=1:1.00
Language : English
Default : Yes
Forced : No
Audio #1
ID : 2
Format : AC-3
Format/Info : Audio Coding 3
Mode extension : CM (complete main)
Format settings, Endianness : Big
Codec ID : A_AC3
Duration : 2h 21mn
Bit rate mode : Constant
Bit rate : 384 Kbps
Channel(s) : 6 channels
Channel positions : Front: L C R, Side: L R, LFE
Sampling rate : 48.0 KHz
Bit depth : 16 bits
Compression mode : Lossy
Stream size : 388 MiB (5%)
Title : Rus DUB iTunes DD5.1 @ 384kbps
Language : Russian
Default : Yes
Forced : No
Audio #2
ID : 3
Format : DTS
Format/Info : Digital Theater Systems
Mode : 16
Format settings, Endianness : Big
Codec ID : A_DTS
Duration : 2h 21mn
Bit rate mode : Constant
Bit rate : 1 509 Kbps
Channel(s) : 6 channels
Channel positions : Front: L C R, Side: L R, LFE
Sampling rate : 48.0 KHz
Bit depth : 24 bits
Compression mode : Lossy
Stream size : 1.49 GiB (21%)
Title : English DTS 5.1 @ 1509kbps
Language : English
Default : No
Forced : No
Menu
00:00:00.000 : en:00:00:00.000
00:12:15.193 : en:00:12:15.193
00:21:23.949 : en:00:21:23.949
00:33:01.771 : en:00:33:01.771
00:36:07.624 : en:00:36:07.624
00:42:00.768 : en:00:42:00.768
00:52:44.745 : en:00:52:44.745
00:59:01.872 : en:00:59:01.872
01:15:51.088 : en:01:15:51.088
01:27:08.598 : en:01:27:08.598
01:36:44.757 : en:01:36:44.757
01:54:35.327 : en:01:54:35.327
02:06:27.580 : en:02:06:27.580
02:11:08.027 : en:02:11:08.027
--- --- -

Скриншоты

-
[Профиль] [ЛС]
Кто просматривает тему:

Форум Тема Автор Размер
Горячие Новинки LEGO: Marvel\'s Avengers / LEGO: Marvel Мстители [L] [RUS|Multi10 / ENG|Multi6] (2016) TorrentFilm 13.21 GB
Фильмы 2016 года Дневники мстителя / Vigilante Diaries (2016) HDRip | L1 BOSS 2.05 GB
Отечественные мультсериалы Маша и Медведь: Неуловимые мстители [51] (2014) WEBRip от ExKinoRay | Sub достали все 108 MB
Отечественные мультсериалы Маша и медведь: Неуловимые мстители [51] (2015) WEB-DLRip достали все 106 MB
Фильмы (HD DVD, Blu-ray и BDRemux) Мстители / The Avengers (1998) BDRemux 1080p от MediaClub | D, A sergej644 18.58 GB
Фильмы (HD Rips | 720p, 1080p) Мстители / The Avengers (2012) BDRip 720p | Лицензия Russian Mafia 7.76 GB
Зарубежные Мстители 3Д / The Avengers 3D (Джосс Уидон / Joss Whedon) [2012 г., США, фантастика, боевик, приключения, Blu-ray Disc 1080p] BD3D TorrentFilm 41.08 GB
Зарубежные Мстители 3Д / The Avengers 3D (Джосс Уидон / Joss Whedon) [2012, США, фантастика, фэнтези, боевик, приключения, BDRip-avc] Dub (CEE) + AVO (Ю.Сербин) + Dub (Ukr) + Original (Eng) + Sub (Rus, Ukr,... TorrentFilm 20.13 GB
Показать сообщения:    

Текущее время: Сегодня 22:22

Часовой пояс: GMT



Вы не можете начинать темы
Вы не можете отвечать на сообщения
Вы не можете редактировать свои сообщения
Вы не можете удалять свои сообщения
Вы не можете голосовать в опросах
Вы не можете прикреплять файлы к сообщениям
Вы не можете скачивать файлы