Мстители: Эра Альтрона в 3Д / Avengers: Age of Ultron 3D (Джосс Уидон / Joss Whedon) [2015, фантастика, боевик, приключения, BDrip, 1080p] Half OverUnder / Вертикальная анаморфная стереопара

 
Автор Сообщение

TorrentFilm ®

Пол:

Стаж: 2 года

Сообщений: 7741



Награды: Нет

Торрент-статистика

Создавать темы 13-Фев-2016 00:08

[Цитировать]

Мстители: Эра Альтрона / Avengers: Age of Ultron
Год выпуска: 2015
Страна: США
Студия: Marvel Studios / Walt Disney
Жанр: фантастика, боевик, приключения
Продолжительность: 02:21:18
Перевод: Профессиональный (дублированный)
Русские субтитры: есть
Режиссер на русском: Джосс Уидон
Режиссер на английском: Joss Whedon
В ролях: Роберт Дауни мл., Крис Хемсворт, Крис Эванс, Скарлетт Йоханссон, Марк Руффало, Джереми Реннер, Аарон Тейлор-Джонсон, Элизабет Олсен, Джеймс Спэйдер, Сэмюэл Л. Джексон
Описание: Человечество на грани уничтожения. На этот раз людям угрожает Альтрон — искусственный интеллект, ранее созданный для того, чтобы защищать Землю от любых угроз. Однако, главной угрозой он посчитал человечество. Международная организация Щ.И.Т. распалась, и теперь мир не способен справиться с таким мощным врагом, потому люди вновь обращаются за помощью к Величайшим Героям Земли — Мстителям. Однако Альтрон слишком силен, и есть большая вероятность, что даже им не удастся остановить начало надвигающейся Эры Альтрона, где нет места для людей…
Качество: BDrip
Контейнер: MKV
Формат 3D: Half OverUnder / Вертикальная анаморфная стереопара
Порядок ракурсов: левый ракурс первый
Видео кодек: x264
Аудио кодек: AC3
Видео: 1920x1080 at 23.976 fps, x264@L4.1, crf, ~12000 kbps avg
Аудио №1: Russian: 48 kHz, AC3, 3/2 (L,C,R,l,r) + LFE ch, ~640.00 kbps avg |Дубляж, Blu-ray CEE|
Аудио №2: Russian: 48 kHz, DTS, 3/2 (L,C,R,l,r) + LFE ch, ~1536.00 kbps avg |Дубляж, The Walt Disney|
Аудио №3: Ukrainian: 48 kHz, DTS, 3/2 (L,C,R,l,r) + LFE ch, ~1536.00 kbps avg |Дубляж, The Walt Disney|
Аудио №4: English: 48 kHz, DTS, 3/2 (L,C,R,l,r) + LFE ch, ~1536.00 kbps avg |Original from BD|
Субтитры: Russian, Ukrainian, English
    Сохранены и подписаны оригинальные главы как на Blu-ray.
      Аудио №2 сделана из оригинальной DTS-HD MA дорожки и дублированной ac3 дорожки путём замены всех участков с английской речью, отголосками и эхом на аналогичные с дублированной дорожки во всех каналах, и прочими редакторскими правками. Спасибо YuriyAS

      MediaInfo

      Общее
      Уникальный идентификатор : 246404543221111020702209190143610542483 (0xB95FC9F0416F98D7985A7E1108235993)
      Полное имя : F:\Avengers.Age.of.Ultron.2015.1080p.3D.BluRay.Half-OU.2xRus.Ukr.Eng.HDCLUB.mkv
      Формат : Matroska
      Версия формата : Version 4 / Version 2
      Размер файла : 17,0 Гбайт
      Продолжительность : 2 ч. 21 м.
      Общий поток : 17,2 Мбит/сек
      Дата кодирования : UTC 2015-12-19 10:39:10
      Программа кодирования : mkvmerge v8.3.0 ('Over the Horizon') 64bit
      Библиотека кодирования : libebml v1.3.1 + libmatroska v1.4.2
      Attachements : cover
      Видео
      Идентификатор : 1
      Формат : AVC
      Формат/Информация : Advanced Video Codec
      Профиль формата : High@L4.1
      Параметр CABAC формата : Да
      Параметр ReFrames формата : 4 кадра
      Идентификатор кодека : V_MPEG4/ISO/AVC
      Продолжительность : 2 ч. 21 м.
      Битрейт : 11,7 Мбит/сек
      Ширина : 1920 пикселей
      Высота : 1080 пикселей
      Соотношение сторон : 16:9
      Режим частоты кадров : Постоянный
      Частота кадров : 23,976 (24000/1001) кадра/сек
      Цветовое пространство : YUV
      Субдискретизация насыщенности : 4:2:0
      Битовая глубина : 8 бит
      Тип развёртки : Прогрессивная
      Бит/(Пиксели*Кадры) : 0.235
      Размер потока : 11,6 Гбайт (68%)
      Заголовок : Avengers: Age of Ultron (2015) 3D Half-OU 1080p BDRip
      Библиотека кодирования : x264 core 148 r2638+53 bb29004 t_mod_Custom [8-bit@all X86]
      Настройки программы : cabac=1 / ref=4 / deblock=1:-3:-3 / analyse=0x3:0x113 / me=umh / subme=11 / psy=1 / fade_compensate=0.00 / psy_rd=1.00:0.00 / mixed_ref=1 / me_range=64 / chroma_me=1 / trellis=2 / 8x8dct=1 / cqm=0 / deadzone=21,11 / fast_pskip=0 / chroma_qp_offset=-2 / threads=12 / lookahead_threads=3 / sliced_threads=0 / nr=0 / decimate=1 / interlaced=0 / bluray_compat=0 / constrained_intra=0 / fgo=0 / bframes=12 / b_pyramid=2 / b_adapt=2 / b_bias=0 / direct=3 / weightb=1 / open_gop=0 / weightp=2 / keyint=250 / keyint_min=23 / scenecut=40 / intra_refresh=0 / rc=crf / mbtree=0 / crf=16.3000 / qcomp=0.60 / qpmin=0:0:0 / qpmax=69:69:69 / qpstep=4 / frame-packing=4 / ip_ratio=1.40 / pb_ratio=1.30 / aq=1:1.00 / aq-sensitivity=10.00 / aq-factor=1.00:1.00:1.00 / aq2=0 / aq3=0 / zones=68,686,crf=15.5/788,1230,crf=15.5/1372,1540,crf=15.5/2220,2702,crf=15.5/3768,3890,crf=15.5/5152,5171,crf=15.5/5413,5509,crf=15.5/5994,6013,crf=15.5/8382,8399,crf=15.5/8484,8525,crf=15.5/8564,8596,crf=15.5/8899,8929,crf=15.5/9668,9711,crf=15.5/14875,15148,crf=16/15149,15192,crf=15.5/15193,17811,crf=16/22966,23236,crf=16/30871,31111,crf=18/31160,31508,crf=16/31909,32039,crf=16/33468,33480,crf=16.5/44175,44186,crf=16.5/44405,44428,crf=15/44477,44574,crf=16/44751,44757,crf=15/44900,44923,crf=16.5/45310,46011,crf=16/46012,46019,crf=15/46020,46963,crf=16/47180,47514,crf=16/52070,57422,crf=16/58366,58410,crf=15.5/60438,60765,crf=16/62176,62266,crf=16/62678,68870,crf=16/70104,70121,crf=16/70740,71339,crf=16/72225,72607,crf=15.5/72608,72631,crf=15/74225,74233,crf=15/75791,75810,crf=15.5/76139,76299,crf=15.5/76516,76578,crf=15.5/76732,76787,crf=16/77070,77456,crf=16/77457,77469,crf=16/77470,78400,crf=16/78797,78850,crf=16/79712,79734,crf=14/79913,79981,crf=15/82730,82836,crf=15/83361,83372,crf=15/83495,83524,crf=15/84858,84926,crf=18/84927,85036,crf=14/86288,86540,crf=14/86541,87050,crf=16/89307,89664,crf=16/93622,93663,crf=15.5/94208,94298,crf=16/98822,100636,crf=16/103220,103669,crf=16/108820,109116,crf=13/109117,109757,crf=15.5/110330,110481,crf=14/110612,110616,crf=14/110639,110682,crf=14/110695,110705,crf=14/110716,110805,crf=14/110873,111241,crf=15.5/111547,111592,crf=15.5/111909,111917,crf=14/111924,111930,crf=14/114078,114428,crf=16/115070,115135,crf=16/115197,115240,crf=16/115265,115302,crf=16/115362,115430,crf=16/115486,115864,crf=16/117445,117560,crf=16/119988,120069,crf=16/120997,121081,crf=16/121615,121686,crf=16/122792,122802,crf=15/122820,122924,crf=15/124232,125360,crf=16/129303,129600,crf=15/130378,130439,crf=15/142688,142878,crf=15.5/143124,143152,crf=15.5/143234,143264,crf=13/143589,143629,crf=15.5/143673,143754,crf=15.5/143849,144159,crf=14/145923,146037,crf=15.5/146049,146111,crf=14/146648,146681,crf=14/147439,147533,crf=15.5/148255,148296,crf=15.5/149230,149378,crf=15/150134,150336,crf=15.5/150602,150632,crf=15.5/150877,150923,crf=15.5/150988,151021,crf=15.5/158101,158238,crf=15.5/158383,158462,crf=15.5/158766,158903,crf=15.5/161788,161835,crf=15.5/161949,162041,crf=15.5/164664,164769,crf=15.5/165134,165221,crf=15.5/166175,166239,crf=15.5/168610,168617,crf=14/168733,168775,crf=15.5/168810,168852,crf=15.5/169046,169106,crf=15.5/169975,170046,crf=15.5/171949,171996,crf=15.5/177608,177627,crf=15.5/178076,178088,crf=15.5/178286,178306,crf=15.5/178465,178481,crf=15.5/178748,178816,crf=15.5/179902,181997,crf=16/185020,186820,crf=16/188701,191531,crf=14/191532,191590,crf=18/192086,203045,crf=20/203046,203144,crf=15.5
      Язык : English
      Default : Да
      Forced : Нет
      Аудио #1
      Идентификатор : 2
      Формат : AC-3
      Формат/Информация : Audio Coding 3
      Расширение режима : CM (complete main)
      Параметр Endianness формата : Big
      Идентификатор кодека : A_AC3
      Продолжительность : 2 ч. 21 м.
      Вид битрейта : Постоянный
      Битрейт : 640 Кбит/сек
      Каналы : 6 каналов
      Расположение каналов : Front: L C R, Side: L R, LFE
      Частота : 48,0 КГц
      Частота кадров : 31,250 кадров/сек (1536 spf)
      Метод сжатия : С потерями
      Размер потока : 649 Мбайт (4%)
      Заголовок : [Blu-ray CEE] Dub - AC3 5.1 @ 640 kbps
      Язык : Russian
      Default : Нет
      Forced : Нет
      Аудио #2
      Идентификатор : 3
      Формат : DTS
      Формат/Информация : Digital Theater Systems
      Режим : 16
      Параметр Endianness формата : Big
      Идентификатор кодека : A_DTS
      Продолжительность : 2 ч. 21 м.
      Вид битрейта : Постоянный
      Битрейт : 1509 Кбит/сек
      Каналы : 6 каналов
      Расположение каналов : Front: L C R, Side: L R, LFE
      Частота : 48,0 КГц
      Частота кадров : 93,750 кадра/сек (512 spf)
      Битовая глубина : 24 бит
      Метод сжатия : С потерями
      Размер потока : 1,49 Гбайт (9%)
      Заголовок : [The Walt Disney] Dub - DTS 5.1 @ 1536 kbps [Remastered by Sergesha]
      Язык : Russian
      Default : Да
      Forced : Нет
      Аудио #3
      Идентификатор : 4
      Формат : DTS
      Формат/Информация : Digital Theater Systems
      Режим : 16
      Параметр Endianness формата : Big
      Идентификатор кодека : A_DTS
      Продолжительность : 2 ч. 21 м.
      Вид битрейта : Постоянный
      Битрейт : 1509 Кбит/сек
      Каналы : 6 каналов
      Расположение каналов : Front: L C R, Side: L R, LFE
      Частота : 48,0 КГц
      Частота кадров : 93,750 кадра/сек (512 spf)
      Битовая глубина : 24 бит
      Метод сжатия : С потерями
      Размер потока : 1,49 Гбайт (9%)
      Заголовок : [The Walt Disney] Dub - DTS 5.1 @ 1536 kbps
      Язык : Ukrainian
      Default : Нет
      Forced : Нет
      Аудио #4
      Идентификатор : 5
      Формат : DTS
      Формат/Информация : Digital Theater Systems
      Режим : 16
      Параметр Endianness формата : Big
      Идентификатор кодека : A_DTS
      Продолжительность : 2 ч. 21 м.
      Вид битрейта : Постоянный
      Битрейт : 1509 Кбит/сек
      Каналы : 6 каналов
      Расположение каналов : Front: L C R, Side: L R, LFE
      Частота : 48,0 КГц
      Частота кадров : 93,750 кадра/сек (512 spf)
      Битовая глубина : 24 бит
      Метод сжатия : С потерями
      Размер потока : 1,49 Гбайт (9%)
      Заголовок : [Original from BD] DTS 5.1 @ 1536 kbps
      Язык : English
      Default : Нет
      Forced : Нет
      Текст #1
      Идентификатор : 6
      Формат : PGS
      Режим смешивания : zlib
      Идентификатор кодека : S_HDMV/PGS
      Идентификатор кодека/Информация : Picture based subtitle format used on BDs/HD-DVDs
      Заголовок : [PGS] Forced 3D Half-OU
      Язык : Russian
      Default : Да
      Forced : Нет
      Текст #2
      Идентификатор : 7
      Формат : UTF-8
      Идентификатор кодека : S_TEXT/UTF8
      Идентификатор кодека/Информация : UTF-8 Plain Text
      Заголовок : [SRT/UTF8] Forced
      Язык : Russian
      Default : Нет
      Forced : Нет
      Текст #3
      Идентификатор : 8
      Формат : UTF-8
      Идентификатор кодека : S_TEXT/UTF8
      Идентификатор кодека/Информация : UTF-8 Plain Text
      Заголовок : [SRT/UTF8] Full
      Язык : Russian
      Default : Нет
      Forced : Нет
      Текст #4
      Идентификатор : 9
      Формат : UTF-8
      Идентификатор кодека : S_TEXT/UTF8
      Идентификатор кодека/Информация : UTF-8 Plain Text
      Заголовок : [SRT/UTF8] Forced
      Язык : Ukrainian
      Default : Нет
      Forced : Нет
      Текст #5
      Идентификатор : 10
      Формат : UTF-8
      Идентификатор кодека : S_TEXT/UTF8
      Идентификатор кодека/Информация : UTF-8 Plain Text
      Заголовок : [SRT/UTF8] Full
      Язык : Ukrainian
      Default : Нет
      Forced : Нет
      Текст #6
      Идентификатор : 11
      Формат : UTF-8
      Идентификатор кодека : S_TEXT/UTF8
      Идентификатор кодека/Информация : UTF-8 Plain Text
      Заголовок : [SRT/UTF8] Full
      Язык : Finnish
      Default : Нет
      Forced : Нет
      Текст #7
      Идентификатор : 12
      Формат : UTF-8
      Идентификатор кодека : S_TEXT/UTF8
      Идентификатор кодека/Информация : UTF-8 Plain Text
      Заголовок : [SRT/UTF8] Full SDH
      Язык : English
      Default : Нет
      Forced : Нет
      Текст #8
      Идентификатор : 13
      Формат : UTF-8
      Идентификатор кодека : S_TEXT/UTF8
      Идентификатор кодека/Информация : UTF-8 Plain Text
      Заголовок : [SRT/UTF8] Full SDH Colored
      Язык : English
      Default : Нет
      Forced : Нет
      Меню
      00:00:00.000 : :Battle for Loki's Scepter / Битва за скипетр Локки
      00:12:15.192 : :Birth of Ultron / Рождение Альтрона
      00:21:23.949 : :Avengers House Party / Вечеринка Мстителей
      00:33:01.771 : :Attack Aftermath / Последствия атаки
      00:36:07.623 : :Ultron Meers the Twins / Альтрон и близнецы
      00:42:00.768 : :Mind Games / Игры разума
      00:52:44.744 : :Hulk vs. Hulkbuster / Халк против Халкбастера
      00:59:01.871 : :The Safe House / В безопасности
      01:15:51.088 : :Cradle Robbing / Похищение контейнера
      01:27:08.598 : :Birthof the Vision / Рождение Вижена
      01:36:44.757 : :The Battle of Sokovia / Битва в Заковии
      01:54:35.326 : :"Is That the Best You Can Do?" / Это всё, на что ты способен?
      02:06:27.580 : :The New Avengers / Новые Мстители
      02:11:08.026 : :End Credits / Финальные титры

      Скриншоты



      Релиз

      [Профиль] [ЛС]
      Кто просматривает тему:

      Форум Тема Автор Размер
      Горячие Новинки LEGO: Marvel\'s Avengers / LEGO: Marvel Мстители [L] [RUS|Multi10 / ENG|Multi6] (2016) TorrentFilm 13.21 GB
      Фильмы 2016 года Дневники мстителя / Vigilante Diaries (2016) HDRip | L1 BOSS 2.05 GB
      Отечественные мультсериалы Маша и Медведь: Неуловимые мстители [51] (2014) WEBRip от ExKinoRay | Sub достали все 108 MB
      Отечественные мультсериалы Маша и медведь: Неуловимые мстители [51] (2015) WEB-DLRip достали все 106 MB
      Фильмы (HD DVD, Blu-ray и BDRemux) Мстители / The Avengers (1998) BDRemux 1080p от MediaClub | D, A sergej644 18.58 GB
      Фильмы (HD Rips | 720p, 1080p) Мстители / The Avengers (2012) BDRip 720p | Лицензия Russian Mafia 7.76 GB
      Зарубежные Мстители 3Д / The Avengers 3D (Джосс Уидон / Joss Whedon) [2012 г., США, фантастика, боевик, приключения, Blu-ray Disc 1080p] BD3D TorrentFilm 41.08 GB
      Зарубежные Мстители 3Д / The Avengers 3D (Джосс Уидон / Joss Whedon) [2012, США, фантастика, фэнтези, боевик, приключения, BDRip-avc] Dub (CEE) + AVO (Ю.Сербин) + Dub (Ukr) + Original (Eng) + Sub (Rus, Ukr,... TorrentFilm 20.13 GB
      Показать сообщения:    

      Текущее время: Сегодня 20:41

      Часовой пояс: GMT



      Вы не можете начинать темы
      Вы не можете отвечать на сообщения
      Вы не можете редактировать свои сообщения
      Вы не можете удалять свои сообщения
      Вы не можете голосовать в опросах
      Вы не можете прикреплять файлы к сообщениям
      Вы не можете скачивать файлы