Мстители: Финал / Avengers: Endgame (2019) WEBRip 1080p | Трейлер №2

 
Author Message

BOSS ®

Gender:

Longevity: 4 years 6 months

Posts: 14056

Location: ODESSA



: 22 ()

Top Releaser 2 (1) Mega Seeder 3 (1) За внесенный вклад в развитие сайта (1)
Торрент-статистика

Post 15-Mar-2019 19:10

[Quote]

«Part of the journey is the end»

Год выпуска: 2019
Производство: США / Marvel Studios Inc., Weta Digital, Legacy Effects
Жанр: Фантастика, фэнтези, боевик, приключения
Режиссер: Энтони Руссо, Джо Руссо
Продюсеры: Кевин Файги, Виктория Алонсо, Митчелл Белл
Актеры: Бри Ларсон, Карен Гиллан, Брэдли Купер, Скарлетт Йоханссон, Эванджелин Лилли, Роберт Дауни мл., Джош Бролин, Крис Хемсворт, Джон Фавро, Крис Эванс
Описание:
Мстители и Стражи Галактики вступают в последнюю стадию войны с Таносом, владеющим всемогущей Перчаткой Бесконечности. Грядёт финальная битва между силами героев и Безумного Титана, которая раз и навсегда определит дальнейшую судьбу не только Земли, но и всей вселенной.
Перевод: Дублированный
Субтитры: Нет-Дата мировой премьеры: 24 апреля 2019
Дата российской премьеры: 29 апреля 2019, «WDSSPR»
-Продолжительность: 00:02:27
Качество видео: WEBRip 1080p-Видео: H264, 1920x1080 (16:9), 31,3 Мбит/сек
Аудио 1: MP3 2.0, 128 Кбит/сек [Русский - дублированный]
Аудио 2: DTS 5.1, 4566 Кбит/сек [Английский - оригинал]

MediaInfo:

Общее
Уникальный идентификатор : 205640331781452270838847575202179853544 (0x9AB4E324770D88C06C692BFF68742CE8)
Полное имя : V:TorrentsAvengers. Endgame (2019) WEBRip [1080p] Trailer №2.mkv
Формат : Matroska
Версия формата : Version 4 / Version 2
Размер файла : 631 Мбайт
Продолжительность : 2 м. 27 с.
Общий поток : 36,0 Мбит/сек
Дата кодирования : UTC 2019-03-15 13:28:37
Программа кодирования : mkvmerge v32.0.0 ('Astral Progressions') 64-bit
Библиотека кодирования : libebml v1.3.7 + libmatroska v1.5.0
Видео
Идентификатор : 1
Формат : AVC
Формат/Информация : Advanced Video Codec
Профиль формата : High@L5.1
Настройки формата : CABAC / 1 Ref Frames
Параметр CABAC формата : Да
Параметр RefFrames формата : 1 кадр
Идентификатор кодека : V_MPEG4/ISO/AVC
Продолжительность : 2 м. 27 с.
Битрейт : 31,3 Мбит/сек
Ширина : 1920 пикселей
Высота : 1080 пикселей
Соотношение сторон : 16:9
Режим частоты кадров : Постоянный
Частота кадров : 23,976 (24000/1001) кадра/сек
Цветовое пространство : YUV
Субдискретизация насыщенности : 4:2:0
Битовая глубина : 8 бит
Тип развёртки : Прогрессивная
Бит/(Пиксели*Кадры) : 0.630
Размер потока : 549 Мбайт (87%)
Default : Да
Forced : Нет
Цветовой диапазон : Limited
Основные цвета : BT.709
Характеристики трансфера : BT.709
Коэффициенты матрицы : BT.709
Аудио #1
Идентификатор : 2
Формат : MPEG Audio
Версия формата : Version 1
Профиль формата : Layer 3
Настройки формата : Joint stereo / MS Stereo
Режим : Joint stereo
Расширение режима : MS Stereo
Идентификатор кодека : A_MPEG/L3
Идентификатор кодека/Подсказка : MP3
Продолжительность : 2 м. 27 с.
Вид битрейта : Постоянный
Битрейт : 128 Кбит/сек
Каналы : 2 канала
Частота : 48,0 КГц
Частота кадров : 41,667 кадра/сек (1152 SPF)
Метод сжатия : С потерями
Задержка видео : 12 мс.
Размер потока : 2,24 Мбайт (0%)
Заголовок : Dub
Язык : Russian
Default : Да
Forced : Нет
Аудио #2
Идентификатор : 3
Формат : DTS
Формат/Информация : Digital Theater Systems
Профиль формата : MA / Core
Режим : 16
Параметр Endianness формата : Big
Идентификатор кодека : A_DTS
Продолжительность : 2 м. 27 с.
Вид битрейта : Переменный / Постоянный
Битрейт : 4566 Кбит/сек / 1509 Кбит/сек
Каналы : 6 каналов
Расположение каналов : Front: L C R, Side: L R, LFE
Частота : 48,0 КГц
Частота кадров : 93,750 кадра/сек (512 SPF)
Битовая глубина : 24 бит
Метод сжатия : Без потерь / Lossy
Задержка видео : 7 мс.
Размер потока : 80,1 Мбайт (13%)
Язык : English
Default : Нет
Forced : Нет

Скриншоты:

[Profile] [PM]
Display posts from previous:    

The time now is: Today 20:56

All times are GMT



You cannot post new topics in this forum
You cannot reply to topics in this forum
You cannot edit your posts in this forum
You cannot delete your posts in this forum
You cannot vote in polls in this forum
You cannot attach files in this forum
You cannot download files in this forum