Мстители: Гримм / Avengers Grimm (2015) WEB-DL 720p | L1

 
Автор Сообщение

достали все ®

Пол:

Стаж: 2 года 3 месяца

Сообщений: 6778



Награды: 12 (Подробнее)

Mega Seeder 2 (Количество: 1) Mega Releaser 1 (Количество: 1) Top Releaser 4 (Количество: 1)
Торрент-статистика

Создавать темы 04-Апр-2015 05:48

[Цитировать]

Мстители: Гримм / Avengers Grimm (2015) WEB-DL 720p
Информация о фильме
Название: Мстители: Гримм
Оригинальное название: Avengers Grimm
Год выпуска: 2015
Жанр:фантастика, фэнтези, боевик, приключения
Режиссер: Джереми Инман
В ролях: Каспер Ван Дин, Лорен Паркинсон, Лу Ферриньо, Майлин Сарли, Райли Вандербилт, Кимо Леопольдо, Жюстин Херрон
О фильме: Когда Румпельштильцхен разрушает Волшебное зеркало и убегает в современный мир, четыре принцессы -Золушка, Спящая красавица, Белоснежка и Рапунцель - проникают на Землю вслед за ним. Хорошо обученные и наделены магическими способностями, эти девушки должны сразиться с Румпельштильцхеном и его армией рабов, прежде чем он поработит всех на Земле.

Выпущено: США / Global Asylum
Продолжительность: 01:25:25
Озвучивание: Любительское (одноголосное) [datynet], перевод [Dlz009]
Файл
Формат: MKV
Качество: WEB-DL 720p
Видео: 3846 kb/s, 1280x720
Аудио: Russian: AC3, 192 kb/s (2 ch) / English: AC3, 384 kb/s (6 ch)
Субтитры: English

MI

Format : Matroska
Format version : Version 4 / Version 2
File size : 2.69 GiB
Duration : 1h 25mn
Overall bit rate : 4 511 Kbps
Encoded date : UTC 2015-04-03 17:21:50
Writing application : mkvmerge v6.1.0 ('Old Devil') built on Mar 4 2013 09:10:42
Writing library : libebml v1.3.0 + libmatroska v1.4.0
Video
ID : 1
Format : AVC
Format/Info : Advanced Video Codec
Format profile : High@L3.1
Format settings, CABAC : No
Format settings, ReFrames : 2 frames
Codec ID : V_MPEG4/ISO/AVC
Duration : 1h 25mn
Bit rate : 3 846 Kbps
Width : 1 280 pixels
Height : 720 pixels
Display aspect ratio : 16:9
Frame rate : 24.000 fps
Color space : YUV
Chroma subsampling : 4:2:0
Bit depth : 8 bits
Scan type : Progressive
Bits/(Pixel*Frame) : 0.174
Stream size : 2.29 GiB (85%)
Language : English
Default : Yes
Forced : No
Color primaries : BT.709-5, BT.1361, IEC 61966-2-4, SMPTE RP177
Transfer characteristics : BT.709-5, BT.1361
Matrix coefficients : BT.709-5, BT.1361, IEC 61966-2-4 709, SMPTE RP177
Audio #1
ID : 2
Format : AC-3
Format/Info : Audio Coding 3
Mode extension : CM (complete main)
Format settings, Endianness : Big
Codec ID : A_AC3
Duration : 1h 25mn
Bit rate mode : Constant
Bit rate : 192 Kbps
Channel(s) : 2 channels
Channel positions : Front: L R
Sampling rate : 44.1 KHz
Bit depth : 16 bits
Compression mode : Lossy
Stream size : 117 MiB (4%)
Language : Russian
Default : Yes
Forced : No
Audio #2
ID : 3
Format : AC-3
Format/Info : Audio Coding 3
Mode extension : CM (complete main)
Format settings, Endianness : Big
Codec ID : A_AC3
Duration : 1h 25mn
Bit rate mode : Constant
Bit rate : 384 Kbps
Channel(s) : 6 channels
Channel positions : Front: L C R, Side: L R, LFE
Sampling rate : 48.0 KHz
Bit depth : 16 bits
Compression mode : Lossy
Stream size : 235 MiB (9%)
Language : English
Default : No
Forced : No
Text
ID : 4
Format : UTF-8
Codec ID : S_TEXT/UTF8
Codec ID/Info : UTF-8 Plain Text
Language : English
Default : No
Forced : No
Menu
00:00:00.000 : en:1
00:08:02.000 : en:2
00:14:30.000 : en:3
00:23:26.000 : en:4
00:30:34.000 : en:5
00:36:13.000 : en:6
00:44:18.000 : en:7
00:53:07.000 : en:8
01:00:50.000 : en:9
01:08:14.000 : en:10
01:16:11.000 : en:11
01:22:35.000 : en:12

Скриншоты

[Профиль] [ЛС]

Создавать темы 04-Апр-2015 05:48 (спустя 31 секунда)

Топик был перенесен из форума Новости трекера в форум Фильмы (HD Rips | 720p, 1080p) (Зарубежные)
достали все
 
Показать сообщения:    

Текущее время: Сегодня 15:59

Часовой пояс: GMT



Вы не можете начинать темы
Вы не можете отвечать на сообщения
Вы не можете редактировать свои сообщения
Вы не можете удалять свои сообщения
Вы не можете голосовать в опросах
Вы не можете прикреплять файлы к сообщениям
Вы не можете скачивать файлы