Мстители Гримм: Временные войны / Avengers Grimm: Time Wars (2018) WEBRip 720p | L2

 
Автор Сообщение

BOSS ®

Пол:

Стаж: 3 года 7 месяцев

Сообщений: 10235

Откуда: ODESSA



Награды: 22 (Подробнее)

Top Seeder 5 (Количество: 1) Top Seeder 3 (Количество: 1) Mega Releaser 3 (Количество: 1)
Торрент-статистика

Создавать темы 16-Май-2018 16:03

[Цитировать]

Информация о фильме
Название: Мстители Гримм: Временные войны
Оригинальное название: Avengers Grimm: Time Wars
Год выхода: 2018
Жанр: Фэнтези, боевик, приключения
Режиссер: Максимилиан Эльфелдт
В ролях: Мара Фэйрклаф, Кристина Личчиарди, Лорен Паркинсон, Майкл Марсель, Эрик Фельтес, Рэндолл Ярбро и другие
О фильме:
Когда Румпельштильцхен пытается захватить мир раз и навсегда, Мстители Гримм должны отследить его во времени и победить его.

Страна: США, Asylum
Продолжительность: 01:28:08
Перевод: Любительский (двухголосый закадровый) | HiWay Grope
Файл
Кодек: MPEG-4 AVC/x.264
Качество: WEBRip 720p
Видео: 1280x720, 23.976 fps, ~2986 kbps, 0.135 bit/pixel
Звук:
Аудио rus: AC3, 48 kHz, 2 ch, 192 Kbps
Субтитры: отсутствуют
Реклама: присутствует
Семпл

MediaInfo:

General
Unique ID : 237425688798056266107150615354030335430 (0xB29E863C9B78B4078400615A83BEA5C6)
Complete name : E:Avengers.Grimm.Time.Wars.2018.720p.WEBRip.HiWayGropeAvengers.Grimm.Time.Wars.2018.720p.WEB-DLRip.HiWayGrope.mkv
Format : Matroska
Format version : Version 4 / Version 2
File size : 1.96 GiB
Duration : 1h 28mn
Overall bit rate mode : Variable
Overall bit rate : 3 180 Kbps
Encoded date : UTC 2018-05-15 22:29:26
Writing application : mkvmerge v17.0.0 ('Be Ur Friend') 64-bit
Writing library : libebml v1.3.5 + libmatroska v1.4.8
Video
ID : 1
Format : AVC
Format/Info : Advanced Video Codec
Format profile : High@L5
Format settings, CABAC : Yes
Format settings, ReFrames : 4 frames
Codec ID : V_MPEG4/ISO/AVC
Duration : 1h 28mn
Bit rate mode : Variable
Bit rate : 2 986 Kbps
Maximum bit rate : 12.0 Mbps
Width : 1 280 pixels
Height : 720 pixels
Display aspect ratio : 16:9
Frame rate mode : Constant
Frame rate : 23.976 (24000/1001) fps
Standard : NTSC
Color space : YUV
Chroma subsampling : 4:2:0
Bit depth : 8 bits
Scan type : Progressive
Bits/(Pixel*Frame) : 0.135
Stream size : 1.84 GiB (94%)
Language : English
Default : Yes
Forced : No
Color range : Limited
Color primaries : BT.709
Transfer characteristics : BT.709
Matrix coefficients : BT.709
Audio
ID : 2
Format : AC-3
Format/Info : Audio Coding 3
Mode extension : CM (complete main)
Format settings, Endianness : Big
Codec ID : A_AC3
Duration : 1h 28mn
Bit rate mode : Constant
Bit rate : 192 Kbps
Channel(s) : 2 channels
Channel positions : Front: L R
Sampling rate : 48.0 KHz
Frame rate : 31.250 fps (1536 spf)
Compression mode : Lossy
Stream size : 121 MiB (6%)
Default : Yes
Forced : No

Скриншоты

Релиз от: HiWay Grope
[Профиль] [ЛС]
Кто просматривает тему:

Форум Тема Автор Размер
Фильмы 2016 года Дневники мстителя / Vigilante Diaries (2016) HDRip | L1 BOSS 2.05 GB
Отечественные мультсериалы Маша и Медведь: Неуловимые мстители [51] (2014) WEBRip от ExKinoRay | Sub достали все 108 MB
Отечественные мультсериалы Маша и медведь: Неуловимые мстители [51] (2015) WEB-DLRip достали все 106 MB
Фильмы (HD DVD, Blu-ray и BDRemux) Мстители / The Avengers (1998) BDRemux 1080p от MediaClub | D, A sergej644 18.58 GB
Фильмы (HD Rips | 720p, 1080p) Мстители / The Avengers (2012) BDRip 720p | Лицензия Russian Mafia 7.76 GB
Зарубежные Мстители 3Д / The Avengers 3D (Джосс Уидон / Joss Whedon) [2012 г., США, фантастика, боевик, приключения, Blu-ray Disc 1080p] BD3D TorrentFilm 41.08 GB
Зарубежные Мстители 3Д / The Avengers 3D (Джосс Уидон / Joss Whedon) [2012, США, фантастика, фэнтези, боевик, приключения, BDRip-avc] Dub (CEE) + AVO (Ю.Сербин) + Dub (Ukr) + Original (Eng) + Sub (Rus, Ukr,... TorrentFilm 20.13 GB
Зарубежные Мстители в 3Д / The Avengers 3D (Джосс Уидон / Joss Whedon) [2012, фантастика, боевик, триллер, Blu-ray Remux 1080p] BD3D TorrentFilm 54.25 GB
Показать сообщения:    

Текущее время: Сегодня 06:17

Часовой пояс: GMT



Вы не можете начинать темы
Вы не можете отвечать на сообщения
Вы не можете редактировать свои сообщения
Вы не можете удалять свои сообщения
Вы не можете голосовать в опросах
Вы не можете прикреплять файлы к сообщениям
Вы не можете скачивать файлы