Мрачное лето / Тёмное лето / Dark Summer (Пол Солет / Paul Solet) [2015, США, ужасы, триллер, WEB-DLRip] DVO (Колобок)

 
Автор Сообщение

TorrentFilm ®

Пол:

Стаж: 2 года

Сообщений: 7741



Награды: Нет

Торрент-статистика

Создавать темы 16-Янв-2015 00:00

[Цитировать]

Мрачное лето / Dark Summer
Страна: США
Жанр: ужасы, триллер
Год выпуска: 2015
Продолжительность: 01:21:37
Перевод: любительский двухголосый закадровый Колобок
Cубтитры: нет
Оригинальная аудиодорожка: нет
Режиссер: Пол Солет / Paul Solet
В ролях: Кейр Гилкрист, Петер Стормаре, Грэйс Фиппс, Стелла Маив, Маэстро Харрелл
Описание: История Дэниела Вильямса, 17-летнего подростка, которого суд приговорил к домашнему аресту на все лето. Пока его мать отлучилась по делам, в доме происходит происшествие, которое влечет за собой цепь страшных и непредсказуемых событий. Одноклассница Дэниэла звонит ему по скайпу и обвиняет его в том, что он довёл её до самоубийства. Обвиняет и убивает себя прямо на его глазах. Перед смертью она говорит, что придет к нему после смерти и заберет его с собой…
Доп. информация:
Перевод: Antonio, озвучка: DeadSno & den904
По заказу РГ Колобок
Сэмпл: http://multi-up.com/1011162
Качество видео: WEB-DLRip
Формат видео: AVI
Видео: Xvid 720x400 23.98fps 1894Kbps
Аудио: Dolby AC3 48000Hz 6 Audio Channel 384Kbps

MediaInfo

General
Complete name : D:\TORRENTS\Dark.Summer.2015.avi
Format : AVI
Format/Info : Audio Video Interleave
File size : 1.30 GiB
Duration : 1h 21mn
Overall bit rate : 2 288 Kbps
Video
ID : 0
Format : MPEG-4 Visual
Format profile : Advanced Simple@L5
Format settings, BVOP : 2
Format settings, QPel : No
Format settings, GMC : No warppoints
Format settings, Matrix : Default (H.263)
Codec ID : XVID
Codec ID/Hint : XviD
Duration : 1h 21mn
Bit rate : 1 895 Kbps
Width : 720 pixels
Height : 400 pixels
Display aspect ratio : 16:9
Frame rate : 23.976 fps
Color space : YUV
Chroma subsampling : 4:2:0
Bit depth : 8 bits
Scan type : Progressive
Compression mode : Lossy
Bits/(Pixel*Frame) : 0.274
Stream size : 1.08 GiB (83%)
Writing library : XviD 64
Audio
ID : 1
Format : AC-3
Format/Info : Audio Coding 3
Mode extension : CM (complete main)
Format settings, Endianness : Big
Codec ID : 2000
Duration : 1h 21mn
Source duration : 1h 21mn
Bit rate mode : Constant
Bit rate : 384 Kbps
Channel(s) : 6 channels
Channel positions : Front: L C R, Side: L R, LFE
Sampling rate : 48.0 KHz
Bit depth : 16 bits
Compression mode : Lossy
Stream size : 224 MiB (17%)
Alignment : Aligned on interleaves
Interleave, duration : 42 ms (1.00 video frame)

Скриншот c названием фильма

Скриншоты

[Профиль] [ЛС]
Кто просматривает тему:

Форум Тема Автор Размер
Приключения, Квесты, Логические Мрачные истории 6: Возмездие. Коллекционное издание (2014) PC достали все 1.02 GB
Приключения, Квесты, Логические Мрачные истории 7: Цвет страха. Коллекционное издание (2014) PC достали все 1.09 GB
Приключения, Квесты, Логические Мрачные истории 8. Главный подозреваемый. Коллекционное издание (2015) PC достали все 939 MB
Приключения, Квесты, Логические Мрачные истории 9. Нити судьбы. Коллекционное издание (2015) PC достали все 707 MB
Приключения, Квесты, Логические Мрачные истории 9: Нити судьбы. Коллекционное издание (2015) PC достали все 780 MB
Приключения, Квесты, Логические Мрачные легенды 2: Песня Темного лебедя. Коллекционное Издание (2016) PC достали все 849 MB
Приключения, Квесты, Логические Мрачные легенды 3: Темный город. Коллекционное Издание (2016) PC достали все 859 MB
Фильмы 2012 года Мрачные тени / Dark Shadows (2012) BDRip | Лицензия Russian Mafia 2.18 GB
Показать сообщения:    

Текущее время: Сегодня 09:12

Часовой пояс: GMT



Вы не можете начинать темы
Вы не можете отвечать на сообщения
Вы не можете редактировать свои сообщения
Вы не можете удалять свои сообщения
Вы не можете голосовать в опросах
Вы не можете прикреплять файлы к сообщениям
Вы не можете скачивать файлы