Моя прекрасная леди / My Fair Lady (1964) BDRip 1080p от MediaClub | P, A

 
Author Message

TorrentFilm ®

Gender:

Longevity: 4 years 11 months

Posts: 7770



: None

Торрент-статистика

Post 29-Oct-2019 23:23

[Quote]

Информация о фильме
Название: Моя прекрасная леди
Оригинальное название: My Fair Lady
Год выхода: 1964
Жанр: Мюзикл, драма, мелодрама, семейный
Режиссер: Джордж Кьюкор
В ролях: Одри Хепберн, Рекс Харрисон, Стэнли Холлоуэй, Уилфрид Хайд-Вайт, Глэдис Купер, Джереми Бретт, Теодор Бикел, Мона Уошборн, Изобел Элсом, Джек Холлэнд, Хелен Альбрехт, Джон Алдерсон, Мэри Александр, Фрэнк Бэйкер, Луис Бэттл, Уильям Бекли, Марджори Беннетт, Оскар Береги мл., Бетти Блайт, Диана Бурбон, Ирис Бристоль, Сью Бронсон, Эндрю Браун, Мэг Браун, Бадди Брайант, Уолтер Бурк, Беа Мари Буш, Колин Кэмпбелл, Дженни Карсон, Натали Кор, Том Каунд, Дженнифер Криер, Морис Дэллимор, Эллисон Дэниелл, Генри Дэниелл, Донна Дэй, Рой Дин, Томас Дик, Брендан Диллон, Энн Дор, Полин Дрэйк, Харви Б. Данн, Сэнди Эдмундсон, Джо Эванс, Рэймонд Фостер
О фильме: Знаменитый профессор Генри Хиггинс заключает пари со своим другом, что сможет обучить безграмотную замарашку, уличную цветочницу Элизу правильной речи и высокосветским манерам и выдать ее за настоящую леди. Искрометный юмор, забавные ситуации, Золушка на глазах у зрителей превращается в принцессу, а убежденный холостяк — во влюбленного.

Страна: США
Студия: Warner Bros. Pictures
Продолжительность: 02:52:59
Перевод: Профессиональный многоголосый, авторский одноголосый
Файл
Кодек: x264
Видео: MPEG-4 AVC, 8077 Кбит/с, 1920x804, 23.976 кадр/с
Звук:
Аудио #1: Русский (DTS, 6 ch, 1509 Кбит/с) / Профессиональный многоголосый (Фильм-Престиж)
Аудио #2: Русский (DTS, 6 ch, 1509 Кбит/с) / Профессиональный многоголосый (ДВД Магия)
Аудио #3: Русский (АС3, 2 ch, 192 Кбит/с) / Профессиональный многоголосый (ДТВ)
Аудио #4: Русский (АС3, 2 ch, 192 Кбит/с) / Профессиональный многоголосый (НТВ+)
Аудио #5: Русский (АС3, 2 ch, 192 Кбит/с) / Профессиональный многоголосый (Премьер-фильм)
Аудио #6: Русский (АС3, 2 ch, 192 Кбит/с) / Авторский одноголосый (Николай Александрович - Мосфильм)
Аудио #7: Русский (DTS, 6 ch, 1509 Кбит/с) / Авторский одноголосый (Юрий Живов)
Аудио #8: Русский (DTS, 6 ch, 1509 Кбит/с) / Авторский одноголосый (Григорий Либергал)
Аудио #9: Русский (DTS, 6 ch, 1509 Кбит/с) / Авторский одноголосый (Юрий Сербин)
Аудио #10: Русский (АС3, 2 ch, 192 Кбит/с) / Авторский одноголосый (Неизвестный)
Аудио #11: Английский (DTS, 6 ch, 1509 Кбит/с)
Субтитры: Русские (только песни), русские, английские
Семпл

MI

Уникальный идентификатор : 200747783152750968291392589367436327858 (0x97069DDF061AEA49B910A2DB5E4F3BB2)
Полное имя : E:MCMoja.prekrasnaja.Ledy.1964.x264.BDRip(1080p)-MediaClubMoja.prekrasnaja.Ledy.1964.x264.BDRip(1080p)-MediaClub.mkv
Формат : Matroska
Версия формата : Version 4 / Version 2
Размер файла : 21,9 Гбайт
Продолжительность : 2 ч. 53 м.
Общий поток : 18,1 Мбит/сек
Название фильма : -= Release MediaClub =-
Дата кодирования : UTC 2013-11-03 17:36:43
Программа кодирования : mkvmerge v6.4.1 ('Omega Point') built on Sep 16 2013 22:05:10
Библиотека кодирования : libebml v1.3.0 + libmatroska v1.4.1
Attachment : Yes / Yes
Видео
Идентификатор : 1
Формат : AVC
Формат/Информация : Advanced Video Codec
Профиль формата : High@L4.1
Параметр CABAC формата : Да
Параметр ReFrames формата : 4 кадра
Идентификатор кодека : V_MPEG4/ISO/AVC
Продолжительность : 2 ч. 53 м.
Битрейт : 8077 Кбит/сек
Ширина : 1920 пикселей
Высота : 804 пикселя
Соотношение сторон : 2,40:1
Режим частоты кадров : Постоянный
Частота кадров : 23,976 кадра/сек
Цветовое пространство : YUV
Субдискретизация насыщенности : 4:2:0
Битовая глубина : 8 бит
Тип развёртки : Прогрессивная
Бит/(Пиксели*Кадры) : 0.218
Размер потока : 9,33 Гбайт (43%)
Заголовок : Moja.prekrasnaja.Ledy.1964.x264.BDRip(1080p)-neni
Библиотека кодирования : x264 core 130 r2273 b3065e6
Настройки программы : cabac=1 / ref=4 / deblock=1:-3:-3 / analyse=0x3:0x113 / me=umh / subme=11 / psy=1 / psy_rd=1.00:0.20 / mixed_ref=1 / me_range=48 / chroma_me=1 / trellis=2 / 8x8dct=1 / cqm=0 / deadzone=21,11 / fast_pskip=0 / chroma_qp_offset=-3 / threads=9 / lookahead_threads=1 / sliced_threads=0 / nr=0 / decimate=0 / interlaced=0 / bluray_compat=0 / constrained_intra=0 / bframes=8 / b_pyramid=2 / b_adapt=2 / b_bias=0 / direct=3 / weightb=1 / open_gop=0 / weightp=2 / keyint=240 / keyint_min=23 / scenecut=40 / intra_refresh=0 / rc=2pass / mbtree=0 / bitrate=8077 / ratetol=1.0 / qcomp=0.60 / qpmin=0 / qpmax=69 / qpstep=4 / cplxblur=20.0 / qblur=0.5 / ip_ratio=1.40 / pb_ratio=1.30 / aq=1:1.00
Язык : Russian
Default : Да
Forced : Да
Аудио #1
Идентификатор : 2
Формат : DTS
Формат/Информация : Digital Theater Systems
Режим : 16
Параметр Endianness формата : Big
Идентификатор кодека : A_DTS
Продолжительность : 2 ч. 53 м.
Вид битрейта : Постоянный
Битрейт : 1509 Кбит/сек
Каналы : 6 каналов
Расположение каналов : Front: L C R, Side: L R, LFE
Частота : 48,0 КГц
Битовая глубина : 24 бит
Метод сжатия : С потерями
Размер потока : 1,82 Гбайт (8%)
Заголовок : MVO [Film Prestige] / DTS 5.1 @ 1509 kbps
Язык : Russian
Default : Да
Forced : Да
Аудио #2
Идентификатор : 3
Формат : DTS
Формат/Информация : Digital Theater Systems
Режим : 16
Параметр Endianness формата : Big
Идентификатор кодека : A_DTS
Продолжительность : 2 ч. 53 м.
Вид битрейта : Постоянный
Битрейт : 1509 Кбит/сек
Каналы : 6 каналов
Расположение каналов : Front: L C R, Side: L R, LFE
Частота : 48,0 КГц
Битовая глубина : 24 бит
Метод сжатия : С потерями
Размер потока : 1,82 Гбайт (8%)
Заголовок : MVO [ДВД Магия] / DTS 5.1 @ 1509 kbps
Язык : Russian
Default : Нет
Forced : Нет
Аудио #3
Идентификатор : 4
Формат : AC-3
Формат/Информация : Audio Coding 3
Расширение режима : CM (complete main)
Параметр Endianness формата : Big
Идентификатор кодека : A_AC3
Продолжительность : 2 ч. 53 м.
Вид битрейта : Постоянный
Битрейт : 192 Кбит/сек
Каналы : 2 канала
Расположение каналов : Front: L R
Частота : 48,0 КГц
Битовая глубина : 16 бит
Метод сжатия : С потерями
Размер потока : 238 Мбайт (1%)
Заголовок : MVO [ДТВ] / AC3 2.0 @ 192 kbps
Язык : Russian
Default : Нет
Forced : Нет
Аудио #4
Идентификатор : 5
Формат : AC-3
Формат/Информация : Audio Coding 3
Расширение режима : CM (complete main)
Параметр Endianness формата : Big
Идентификатор кодека : A_AC3
Продолжительность : 2 ч. 53 м.
Вид битрейта : Постоянный
Битрейт : 192 Кбит/сек
Каналы : 2 канала
Расположение каналов : Front: L R
Частота : 48,0 КГц
Битовая глубина : 16 бит
Метод сжатия : С потерями
Размер потока : 238 Мбайт (1%)
Заголовок : MVO [НТВ+] / AC3 2.0 @ 192 kbps
Язык : Russian
Default : Нет
Forced : Нет
Аудио #5
Идентификатор : 6
Формат : AC-3
Формат/Информация : Audio Coding 3
Расширение режима : CM (complete main)
Параметр Endianness формата : Big
Идентификатор кодека : A_AC3
Продолжительность : 2 ч. 53 м.
Вид битрейта : Постоянный
Битрейт : 192 Кбит/сек
Каналы : 2 канала
Расположение каналов : Front: L R
Частота : 48,0 КГц
Битовая глубина : 16 бит
Метод сжатия : С потерями
Размер потока : 238 Мбайт (1%)
Заголовок : DVO [Премьер-фильм] / AC3 2.0 @ 192 kbps
Язык : Russian
Default : Нет
Forced : Нет
Аудио #6
Идентификатор : 7
Формат : AC-3
Формат/Информация : Audio Coding 3
Расширение режима : CM (complete main)
Параметр Endianness формата : Big
Идентификатор кодека : A_AC3
Продолжительность : 2 ч. 53 м.
Вид битрейта : Постоянный
Битрейт : 192 Кбит/сек
Каналы : 2 канала
Расположение каналов : Front: L R
Частота : 48,0 КГц
Битовая глубина : 16 бит
Метод сжатия : С потерями
Размер потока : 238 Мбайт (1%)
Заголовок : VO [Александрович] / AC3 2.0 @ 192 kbps
Язык : Russian
Default : Нет
Forced : Нет
Аудио #7
Идентификатор : 8
Формат : DTS
Формат/Информация : Digital Theater Systems
Режим : 16
Параметр Endianness формата : Big
Идентификатор кодека : A_DTS
Продолжительность : 2 ч. 53 м.
Вид битрейта : Постоянный
Битрейт : 1509 Кбит/сек
Каналы : 6 каналов
Расположение каналов : Front: L C R, Side: L R, LFE
Частота : 48,0 КГц
Битовая глубина : 24 бит
Метод сжатия : С потерями
Размер потока : 1,82 Гбайт (8%)
Заголовок : AVO [Юрий Живов] / DTS 5.1 @ 1509 kbps
Язык : Russian
Default : Нет
Forced : Нет
Аудио #8
Идентификатор : 9
Формат : DTS
Формат/Информация : Digital Theater Systems
Режим : 16
Параметр Endianness формата : Big
Идентификатор кодека : A_DTS
Продолжительность : 2 ч. 53 м.
Вид битрейта : Постоянный
Битрейт : 1509 Кбит/сек
Каналы : 6 каналов
Расположение каналов : Front: L C R, Side: L R, LFE
Частота : 48,0 КГц
Битовая глубина : 24 бит
Метод сжатия : С потерями
Размер потока : 1,82 Гбайт (8%)
Заголовок : AVO [Григорий Либергал] / DTS 5.1 @ 1509 kbps
Язык : Russian
Default : Нет
Forced : Нет
Аудио #9
Идентификатор : 10
Формат : DTS
Формат/Информация : Digital Theater Systems
Режим : 16
Параметр Endianness формата : Big
Идентификатор кодека : A_DTS
Продолжительность : 2 ч. 53 м.
Вид битрейта : Постоянный
Битрейт : 1509 Кбит/сек
Каналы : 6 каналов
Расположение каналов : Front: L C R, Side: L R, LFE
Частота : 48,0 КГц
Битовая глубина : 24 бит
Метод сжатия : С потерями
Размер потока : 1,82 Гбайт (8%)
Заголовок : AVO [Юрий Сербин] / DTS 5.1 @ 1509 kbps
Язык : Russian
Default : Нет
Forced : Нет
Аудио #10
Идентификатор : 11
Формат : AC-3
Формат/Информация : Audio Coding 3
Расширение режима : CM (complete main)
Параметр Endianness формата : Big
Идентификатор кодека : A_AC3
Продолжительность : 2 ч. 53 м.
Вид битрейта : Постоянный
Битрейт : 192 Кбит/сек
Каналы : 2 канала
Расположение каналов : Front: L R
Частота : 48,0 КГц
Битовая глубина : 16 бит
Метод сжатия : С потерями
Размер потока : 238 Мбайт (1%)
Заголовок : VO [Неизвестный] / AC3 2.0 @ 192 kbps
Язык : Russian
Default : Нет
Forced : Нет
Аудио #11
Идентификатор : 12
Формат : DTS
Формат/Информация : Digital Theater Systems
Режим : 16
Параметр Endianness формата : Big
Идентификатор кодека : A_DTS
Продолжительность : 2 ч. 53 м.
Вид битрейта : Постоянный
Битрейт : 1509 Кбит/сек
Каналы : 6 каналов
Расположение каналов : Front: L C R, Side: L R, LFE
Частота : 48,0 КГц
Битовая глубина : 24 бит
Метод сжатия : С потерями
Размер потока : 1,82 Гбайт (8%)
Заголовок : Original / DTS 5.1 @ 1509 kbps
Язык : English
Default : Нет
Forced : Нет
Текст #1
Идентификатор : 13
Формат : UTF-8
Идентификатор кодека : S_TEXT/UTF8
Идентификатор кодека/Информация : UTF-8 Plain Text
Заголовок : Только песни
Язык : Russian
Default : Да
Forced : Да
Текст #2
Идентификатор : 14
Формат : UTF-8
Идентификатор кодека : S_TEXT/UTF8
Идентификатор кодека/Информация : UTF-8 Plain Text
Язык : Russian
Default : Нет
Forced : Нет
Текст #3
Идентификатор : 15
Формат : UTF-8
Идентификатор кодека : S_TEXT/UTF8
Идентификатор кодека/Информация : UTF-8 Plain Text
Язык : English
Default : Нет
Forced : Нет
Меню
00:00:00.000 : en:1. Overture and Credits
00:03:31.169 : en:2. The Rain in Covent Garden
00:05:47.555 : en:3. Phonetics in Practice
00:09:52.508 : en:4. Why Can't the English?
00:12:51.270 : en:5. Higgins' Boast
00:14:29.827 : en:6. Wouldn't It Be Loverly?
00:19:06.562 : en:7. Not a Brass Farthing
00:24:10.657 : en:8. Something Better?
00:26:11.069 : en:9. Negotiations
00:32:38.915 : en:10. And the Angels Will Weep
00:37:31.415 : en:11. Bath Time
00:39:46.759 : en:12. I'm an Ordinary Man
00:44:47.810 : en:13. With A Little Bit of Luck
00:50:42.622 : en:14. Gift of Rhetoric
00:55:14.644 : en:15. The Undeserving Poor
00:59:34.946 : en:16. Just You Wait
01:03:56.999 : en:17. As and Hs
01:06:18.391 : en:18. Poor Professor Higgins
01:11:13.227 : en:19. Pep Talk
01:12:46.779 : en:20. The Rain in Spain
01:16:59.406 : en:21. I Could Have Danced All Night
01:21:04.860 : en:22. Ascot Gavotte
01:24:34.944 : en:23. At the Races
01:26:12.959 : en:24. The New Small Talk
01:30:28.047 : en:25. Dover's Bloomin' Arse
01:32:55.736 : en:26. On the Street Where You Live
01:37:45.860 : en:27. The Girl Matters
01:40:10.587 : en:28. Dressed for the Ball
01:41:14.777 : en:29. Intermission
01:41:55.109 : en:30. Entr'Acte
01:43:08.182 : en:31. Zoltan Karpathy
01:44:49.700 : en:32. The Embassy Waltz
01:46:51.363 : en:33. Quite Charming
01:48:59.282 : en:34. Abuzz About Eliza
01:52:52.182 : en:35. You Did It
01:59:02.343 : en:36. What's to Become of Her?
02:06:14.149 : en:37. Just You Wait Reprise
02:07:44.657 : en:38. On the Street Where You Live Reprise
02:09:03.819 : en:39. Show Me
02:12:10.464 : en:40. Wouldn't It Be Loverly? Reprise
02:15:21.029 : en:41. Respectable!
02:19:02.250 : en:42. Get Me to the Church on Time
02:25:05.905 : en:43. Eliza's Bolted
02:27:17.954 : en:44. A Hymn to Him
02:32:10.579 : en:45. The Lady's Whereabouts
02:34:52.908 : en:46. Eliza's Future
02:39:03.659 : en:47. Without You
02:43:55.158 : en:48. I've Grown Accustomed to Her Face
02:48:33.436 : en:49. Where the Devil?
02:51:43.710 : en:50. Exit Music/End Credits

Скриншоты



Релиз от: Rip by
[Profile] [PM]
Кто просматривает тему:

Display posts from previous:    

The time now is: Today 06:36

All times are GMT



You cannot post new topics in this forum
You cannot reply to topics in this forum
You cannot edit your posts in this forum
You cannot delete your posts in this forum
You cannot vote in polls in this forum
You cannot attach files in this forum
You cannot download files in this forum