Моя мама против (2015) SATRip (серии 1-4 из 4)

 
Автор Сообщение

достали все ®

Пол:

Стаж: 1 год 8 месяцев

Сообщений: 6565



Награды: 12 (Подробнее)

Top Releaser 3 (Количество: 1) Mega Releaser 1 (Количество: 1) Mega Seeder 2 (Количество: 1)
Торрент-статистика

Создавать темы 06-Июн-2015 16:55

[Цитировать]

-Моя мама против (2015) SATRip (серии 1-4 из 4)- Производство: Россия, Кинокомпания Русское
Жанр: мелодрама
Режиссер: Андрей Селиванов
Актеры: Софья Озерова, Станислав Бондаренко, Елена Корикова, Дмитрий Ратомский, Олег Морозов, Александр Басов, Сергей Макаров и др.
Описание:
Валентина, моложавая и привлекательная женщина, работает преподавателем в престижном вузе. Её дочери Оле только 16, но она уже студентка. Мать и дочь живут душа в душу, хоть совсем не похожи по характеру. Но однажды в их мирную жизнь приходит разлад, который вскоре превращается в настоящую вражду. Виной всему молодой аспирант Павел. Валентина влюбляется в парня, и его романтические разговоры о первой любви воспринимает на свой счёт. Однако его возлюбленной оказывается вовсе не Валентина, а ее дочь Ольга.

Дата премьеры в РФ: 6 июня 2015
Продолжительность: ~ 00:44:00 серия
Качество видео: SATRip
Видео: XviD, 720x400 (16:9), ~1800 kb/s
Аудио: MPEG Layer 3, 2 ch 128 kb/s, CBR

MediaInfo:

Общее
Полное имя : D:\Моя мама против (2015) SATRip\01.Моя_мама_против.2015.SATRip.avi
Формат : AVI
Формат/Информация : Audio Video Interleave
Размер файла : 616 Мбайт
Продолжительность : 44 м.
Общий поток : 1938 Кбит/сек
Программа кодирования : VirtualDubMod 1.5.10.3 | www.virtualdub-fr.org || (build 2550/release)
Библиотека кодирования : VirtualDubMod build 2550/release
Видео
Идентификатор : 0
Формат : MPEG-4 Visual
Профиль формата : Advanced Simple@L5
Параметр BVOP формата : 2
Параметр QPel формата : Нет
Параметр GMC формата : Без точки перехода
Параметр матрицы формата : Default (H.263)
Идентификатор кодека : XVID
Идентификатор кодека/Подсказка : XviD
Продолжительность : 44 м.
Битрейт : 1800 Кбит/сек
Ширина : 720 пикселей
Высота : 400 пикселей
Соотношение сторон : 16:9
Частота кадров : 25,000 кадров/сек
Цветовое пространство : YUV
Субдискретизация насыщенности : 4:2:0
Битовая глубина : 8 бит
Тип развёртки : Прогрессивная
Метод сжатия : С потерями
Бит/(Пиксели*Кадры) : 0.250
Размер потока : 573 Мбайт (93%)
Библиотека кодирования : XviD 1.2.1 (UTC 2008-12-04)
Аудио
Идентификатор : 1
Формат : MPEG Audio
Версия формата : Version 1
Профиль формата : Layer 3
Режим : Joint stereo
Расширение режима : MS Stereo
Идентификатор кодека : 55
Идентификатор кодека/Подсказка : MP3
Продолжительность : 44 м.
Вид битрейта : Постоянный
Битрейт : 128 Кбит/сек
Каналы : 2 канала
Частота : 48,0 КГц
Метод сжатия : С потерями
Размер потока : 40,7 Мбайт (7%)
Выравнивание : Соединение по промежуткам
Продолжительность промежутка : 40 мс. (1,00 видеокадр)
Время предзагрузки промежутка : 504 мс.
Библиотека кодирования : LAME3.99r
Настройки программы : -m j -V 4 -q 9 -lowpass 17 -b 128
Скриншоты:
[Профиль] [ЛС]
Кто просматривает тему:

Показать сообщения:    

Текущее время: Сегодня 22:10

Часовой пояс: GMT



Вы не можете начинать темы
Вы не можете отвечать на сообщения
Вы не можете редактировать свои сообщения
Вы не можете удалять свои сообщения
Вы не можете голосовать в опросах
Вы не можете прикреплять файлы к сообщениям
Вы не можете скачивать файлы