Моя любимая свекровь [01-04 из 04] (2016) WEB-DLRip

 
Автор Сообщение

достали все ®

Пол:

Стаж: 1 год 8 месяцев

Сообщений: 6565



Награды: 12 (Подробнее)

За внесенный вклад в развитие сайта (Количество: 1) Mega Seeder 1 (Количество: 1) Mega Seeder 5 (Количество: 1)
Торрент-статистика

Создавать темы 26-Сен-2016 03:58

[Цитировать]

Информация о фильме
Оригинальное название: Моя любимая свекровь
Год выпуска: 2016
Жанр: Мелодрама, комедия
Режиссер: Влад Николаев
В ролях: Евгения Дмитриева, Галина Петрова, Константин Соловьёв, Галина Польских, Марина Дюжева, Кристина Бабушкина, Лаура Кеосаян, Игорь Пазыч, Сергей Беляев, Дарья Дроздовская, Антонина Дивина, Николай Герман, Александр Бобков
О фильме:
Татьяне исполнилось 40 лет. Впереди, как ей кажется, спокойные десятилетия, полный штиль в личной жизни и чтение любимых романов. Однако судьба готовит для неё совсем другой сценарий. Любимый сын объявляет ей, что в ближайшее время она станет свекровью. Татьяна развивает бешеную деятельность, пытаясь рассорить сына с невестой – он молод, глуп, он не готов к семейной жизни! И тут происходит невероятное – Таня влюбляется сама! А будущая свекровь Татьяны совершенно не в восторге от решения сына жениться...

Страна: Россия
Студия: ТВЦ
Продолжительность: 4 x ~ 00:44:00
Перевод: Не требуется
Файл
Формат: AVI
Качество: HDTVRip
Видео: XviD build 73, 688x368 (16:9), 25.000 fps, ~ 1000 Kbps (~ 0.160 bit/pixel)
Звук: 48.0 kHz, MP3, 2/0 ch, 128 kbps
Субтитры: нет

МедиаИнфо

General
Complete name : Moja.Ljubimaja.Svekrovj.2016.XviD.WEB-DLRip.by.GeneralFilm1.serija.avi
Format : AVI
Format/Info : Audio Video Interleave
File size : 372 MiB
Duration : 44mn 44s
Overall bit rate : 1 162 Kbps
Writing application : VirtualDubMod 1.5.10.3 | www.virtualdub-fr.org || (build 2550/release)
Writing library : VirtualDubMod build 2550/release
Video
ID : 0
Format : MPEG-4 Visual
Format profile : Advanced Simple@L5
Format settings, BVOP : 1
Format settings, QPel : No
Format settings, GMC : No warppoints
Format settings, Matrix : Custom
Codec ID : XVID
Codec ID/Hint : XviD
Duration : 44mn 44s
Bit rate : 1 025 Kbps
Width : 688 pixels
Height : 368 pixels
Display aspect ratio : 1.85:1
Frame rate : 25.000 fps
Color space : YUV
Chroma subsampling : 4:2:0
Bit depth : 8 bits
Scan type : Progressive
Compression mode : Lossy
Bits/(Pixel*Frame) : 0.162
Stream size : 328 MiB (88%)
Writing library : XviD 73
Audio
ID : 1
Format : MPEG Audio
Format version : Version 1
Format profile : Layer 3
Codec ID : 55
Codec ID/Hint : MP3
Duration : 44mn 44s
Bit rate mode : Constant
Bit rate : 128 Kbps
Channel(s) : 2 channels
Sampling rate : 48.0 KHz
Compression mode : Lossy
Stream size : 41.0 MiB (11%)
Alignment : Aligned on interleaves
Interleave, duration : 40 ms (1.00 video frame)
Interleave, preload duratio : 504 ms
Writing library : LAME3.99r
Encoding settings : -m s -V 4 -q 0 -lowpass 17 -b 128

Скриншоты




Релиз от:
[Профиль] [ЛС]
Кто просматривает тему:

Показать сообщения:    

Текущее время: Сегодня 18:10

Часовой пояс: GMT



Вы не можете начинать темы
Вы не можете отвечать на сообщения
Вы не можете редактировать свои сообщения
Вы не можете удалять свои сообщения
Вы не можете голосовать в опросах
Вы не можете прикреплять файлы к сообщениям
Вы не можете скачивать файлы