Моя любимая свекровь / Серии: 1-4 из 4 (Влад Николаев) [2016, мелодрама, SATRip-AVC]

 
Автор Сообщение

Aleksan66 ®

Стаж: 2 месяца 14 дней

Сообщений: 10



Награды: Нет

Торрент-статистика

Создавать темы 24-Сен-2016 23:46

[Цитировать]

Моя любимая свекровь --
Год выпуска: 2016
Производство: Россия,"Mauris Film"
Жанр: мелодрама
Продолжительность: 00:44:00
Субтитры: нет
--
Режиссёр: Влад Николаева
--
В ролях: Евгения Дмитриева, Галина Петрова, Константин Соловьёв, Галина Польских, Марина Дюжева, Кристина Бабушкина, Лаура Кеосаян, Игорь Пазыч, Сергей Беляев, Дарья Дроздовская, Антонина Дивина, Николай Герман, Александр Бобков
Описание: Татьяне исполнилось 40 лет. Впереди, как ей кажется, спокойные десятилетия, полный штиль в личной жизни и чтение любимых романов. Однако судьба готовит для неё совсем другой сценарий. Любимый сын объявляет ей, что в ближайшее время она станет свекровью. Татьяна развивает бешеную деятельность, пытаясь рассорить сына с невестой – он молод, глуп, он не готов к семейной жизни! И тут происходит невероятное – Таня влюбляется сама! А будущая свекровь Татьяны совершенно не в восторге от решения сына жениться...
--

--
--
Качество: SATRip
Формат: MKV
Видео кодек: H.264
Аудио кодек: AC3
Видео: MPEG4 Video (H264), 720x400, 25fps,1500 Kbps,bit/pixel 0.208
Аудио: AC3 48000Hz, stereo, 192kbps,2 ch
--

MI

Общее
Уникальный идентификатор : 185516014008417862194112181148421247394 (0x8B9115ABE6172678BF16671377ACD1A2)
Полное имя : H:\Моя любимая свекровь\01 серия_Моя любимая свекровь_rip by_Aleksan55.mkv
Формат : Matroska
Версия формата : Version 2
Размер файла : 535 Мбайт
Продолжительность : 44 м.
Общий поток : 1694 Кбит/сек
Дата кодирования : UTC 2016-09-24 14:11:56
Программа кодирования : mkvmerge v7.8.0 ('River Man') 32bit built on Apr 3 2015 12:11:22
Библиотека кодирования : libebml v1.3.1 + libmatroska v1.4.2
Видео
Идентификатор : 1
Формат : AVC
Формат/Информация : Advanced Video Codec
Профиль формата : High@L4.1
Параметр CABAC формата : Да
Параметр ReFrames формата : 12 кадров
Идентификатор кодека : V_MPEG4/ISO/AVC
Продолжительность : 44 м.
Битрейт : 1500 Кбит/сек
Ширина : 720 пикселей
Высота : 400 пикселей
Соотношение сторон : 16:9
Режим частоты кадров : Постоянный
Частота кадров : 25,000 кадров/сек
Цветовое пространство : YUV
Субдискретизация насыщенности : 4:2:0
Битовая глубина : 8 бит
Тип развёртки : Прогрессивная
Бит/(Пиксели*Кадры) : 0.208
Размер потока : 463 Мбайт (87%)
Библиотека кодирования : x264 core 148 r2638 7599210
Настройки программы : cabac=1 / ref=12 / deblock=1:-2:-2 / analyse=0x3:0x133 / me=umh / subme=10 / psy=1 / psy_rd=1.00:0.00 / mixed_ref=0 / me_range=32 / chroma_me=1 / trellis=2 / 8x8dct=1 / cqm=0 / deadzone=21,11 / fast_pskip=0 / chroma_qp_offset=-2 / threads=3 / lookahead_threads=3 / sliced_threads=0 / nr=0 / decimate=0 / interlaced=0 / bluray_compat=0 / constrained_intra=0 / bframes=12 / b_pyramid=2 / b_adapt=1 / b_bias=0 / direct=3 / weightb=1 / open_gop=0 / weightp=2 / keyint=250 / keyint_min=25 / scenecut=40 / intra_refresh=0 / rc_lookahead=40 / rc=2pass / mbtree=1 / bitrate=1500 / ratetol=1.0 / qcomp=0.90 / qpmin=0 / qpmax=29 / qpstep=4 / cplxblur=20.0 / qblur=0.5 / ip_ratio=1.10 / aq=1:1.20
Default : Да
Forced : Нет
Цветовой диапазон : Limited
Основные цвета : BT.601 PAL
Характеристики трансфера : BT.470 System B, BT.470 System G
Коэффициенты матрицы : BT.601
Аудио
Идентификатор : 2
Формат : AC-3
Формат/Информация : Audio Coding 3
Расширение режима : CM (complete main)
Параметр Endianness формата : Big
Идентификатор кодека : A_AC3
Продолжительность : 44 м.
Вид битрейта : Постоянный
Битрейт : 192 Кбит/сек
Каналы : 2 канала
Расположение каналов : Front: L R
Частота : 48,0 КГц
Метод сжатия : С потерями
Размер потока : 60,6 Мбайт (11%)
Default : Да
Forced : Нет
--

Скриншоты


--
--Рекламы нет.
[Профиль] [ЛС]
Кто просматривает тему:

Показать сообщения:    

Текущее время: Сегодня 06:03

Часовой пояс: GMT



Вы не можете начинать темы
Вы не можете отвечать на сообщения
Вы не можете редактировать свои сообщения
Вы не можете удалять свои сообщения
Вы не можете голосовать в опросах
Вы не можете прикреплять файлы к сообщениям
Вы не можете скачивать файлы