Моя земля / Under sandet (2015) BDRip 1080p | P, L1

 
Автор Сообщение

BOSS ®

Пол:

Стаж: 3 года

Сообщений: 7569

Откуда: ODESSA



Награды: 22 (Подробнее)

Top Releaser 2 (Количество: 1) Top Seeder 3 (Количество: 1) Top Releaser 4 (Количество: 1)
Торрент-статистика

Создавать темы 04-Авг-2017 04:23

[Цитировать]

Моя земляUnder sandet«They survived World War II. Now they have to survive the clearing»- Страна: Дания, Германия
Жанр: драма, военный, история
Год выпуска: 2015
Продолжительность: 01:40:52
Перевод: Профессиональный (многоголосый, закадровый), Любительский (одноголосый)
Субтитры: русские (adelstein_s), английские, немецкие (Forced), датские (Forced),-Режиссер: Мартин Зандвлиет / Martin Zandvliet-В ролях: Роланд Мюллер (Sgt. Carl Rasmussen), Луис Хофманн (Sebastian Schumann), Йоэль Басман (Helmut Morbach), Миккель Боэ Фёльсгор (Cpt. Ebbe Jensen), Лаура Бро (Karin), Zoe Zandvliet (Elisabeth, Karins Daughter), Mads Riisom (Soldier Peter), Oskar Böckelmann (Ludwig Haffke), Emil Belton (Ernst Lessner), Oskar Belton (Werner Lessner), Леон Сидел (Wilhelm Hahn), Александер Зайдель (Manfred)-Описание: Май 1945 года. Дания постепенно приходит в себя после оккупации и освобождается от господства Германии. Однако все западное побережье все еще заминировано - сюрприз союзным войскам. По решению военного командования, разминирование будет проводиться с помощью военнопленных. Сержанту Расмуссену категорически не везет: в его распоряжение поступают совсем молоденькие немецкие солдаты, мальчишки, еще вчера списывавшие друг у друга на контрольной...-
MPAA: R - Лицам до 17 лет обязательно присутствие взрослого-Семпл- -Качество: BDRip 1080p
Контейнер: MKV
Видео: AVC, 1920x800 (2.40:1), 9957 kbps, 23,976 fps, 0,270 bpp
Аудио №1: русский / AC3 / 5.1 / 48 kHz / 384 kbps / MVO ( iTunes )
Аудио №2: русский / AC3 / 5.1 / 48 kHz / 448 kbps / VO ( zamez )
Аудио №3: немецкий / AC3 / 5.1 / 48 kHz / 640 kbps
Навигация по главам: есть-

Media Info

Формат : Matroska
Версия формата : Version 2
Размер файла : 8,22 Гбайт
Продолжительность : 1 ч. 40 м.
Общий поток : 11,7 Мбит/сек
Название фильма : = Моя земля / Under sandet (2015) BDRip 1080p - KORSAR =
Дата кодирования : UTC 2017-08-03 15:58:21
Программа кодирования : mkvmerge v5.8.0 ('No Sleep / Pillow') built on Sep 2 2012 15:37:04
Библиотека кодирования : libebml v1.2.3 + libmatroska v1.3.0
Attachment : Yes
Видео
Идентификатор : 1
Формат : AVC
Формат/Информация : Advanced Video Codec
Профиль формата : High@L4.1
Параметр CABAC формата : Да
Параметр ReFrames формата : 5 кадров
Идентификатор кодека : V_MPEG4/ISO/AVC
Продолжительность : 1 ч. 40 м.
Битрейт : 9957 Кбит/сек
Ширина : 1920 пикселей
Высота : 800 пикселей
Соотношение сторон : 2,40:1
Режим частоты кадров : Постоянный
Частота кадров : 23,976 кадра/сек
Цветовое пространство : YUV
Субдискретизация насыщенности : 4:2:0
Битовая глубина : 8 бит
Тип развёртки : Прогрессивная
Бит/(Пиксели*Кадры) : 0.270
Размер потока : 7,02 Гбайт (85%)
Заголовок : Моя земля / Under sandet (2015) BDRip 1080p - KORSAR
Библиотека кодирования : x264 core 146 r2538 121396c
Настройки программы : cabac=1 / ref=5 / deblock=1:-3:-3 / analyse=0x3:0x113 / me=umh / subme=11 / psy=1 / psy_rd=1.00:0.05 / mixed_ref=1 / me_range=48 / chroma_me=1 / trellis=2 / 8x8dct=1 / cqm=0 / deadzone=21,11 / fast_pskip=0 / chroma_qp_offset=-3 / threads=12 / lookahead_threads=3 / sliced_threads=0 / nr=0 / decimate=1 / interlaced=0 / bluray_compat=0 / constrained_intra=0 / bframes=10 / b_pyramid=2 / b_adapt=2 / b_bias=0 / direct=3 / weightb=1 / open_gop=0 / weightp=2 / keyint=240 / keyint_min=23 / scenecut=40 / intra_refresh=0 / rc=crf / mbtree=0 / crf=18.0 / qcomp=0.60 / qpmin=0 / qpmax=69 / qpstep=4 / ip_ratio=1.40 / pb_ratio=1.30 / aq=3:0.70
Язык : German
Default : Да
Forced : Нет
Основные цвета : BT.709
Характеристики трансфера : BT.709
Коэффициенты матрицы : BT.709
Аудио #1
Идентификатор : 2
Формат : AC-3
Формат/Информация : Audio Coding 3
Расширение режима : CM (complete main)
Параметр Endianness формата : Big
Идентификатор кодека : A_AC3
Продолжительность : 1 ч. 40 м.
Вид битрейта : Постоянный
Битрейт : 384 Кбит/сек
Каналы : 6 каналов
Расположение каналов : Front: L C R, Side: L R, LFE
Частота : 48,0 КГц
Битовая глубина : 16 бит
Метод сжатия : С потерями
Размер потока : 277 Мбайт (3%)
Заголовок : MVO ( iTunes )
Язык : Russian
Default : Да
Forced : Нет
Аудио #2
Идентификатор : 3
Формат : AC-3
Формат/Информация : Audio Coding 3
Расширение режима : CM (complete main)
Параметр Endianness формата : Big
Идентификатор кодека : A_AC3
Продолжительность : 1 ч. 40 м.
Вид битрейта : Постоянный
Битрейт : 448 Кбит/сек
Каналы : 6 каналов
Расположение каналов : Front: L C R, Side: L R, LFE
Частота : 48,0 КГц
Битовая глубина : 16 бит
Метод сжатия : С потерями
Размер потока : 323 Мбайт (4%)
Заголовок : VO ( zamez )
Язык : Russian
Default : Нет
Forced : Нет
Аудио #3
Идентификатор : 4
Формат : AC-3
Формат/Информация : Audio Coding 3
Расширение режима : CM (complete main)
Параметр Endianness формата : Big
Идентификатор кодека : A_AC3
Продолжительность : 1 ч. 40 м.
Вид битрейта : Постоянный
Битрейт : 640 Кбит/сек
Каналы : 6 каналов
Расположение каналов : Front: L C R, Side: L R, LFE
Частота : 48,0 КГц
Битовая глубина : 16 бит
Метод сжатия : С потерями
Размер потока : 462 Мбайт (5%)
Заголовок : MULTI
Язык : German
Default : Нет
Forced : Нет
Текст #1
Идентификатор : 5
Формат : UTF-8
Идентификатор кодека : S_TEXT/UTF8
Идентификатор кодека/Информация : UTF-8 Plain Text
Заголовок : adelstein_s
Язык : Russian
Default : Нет
Forced : Нет
Текст #2
Идентификатор : 6
Формат : UTF-8
Идентификатор кодека : S_TEXT/UTF8
Идентификатор кодека/Информация : UTF-8 Plain Text
Язык : English
Default : Нет
Forced : Нет
Текст #3
Идентификатор : 7
Формат : UTF-8
Идентификатор кодека : S_TEXT/UTF8
Идентификатор кодека/Информация : UTF-8 Plain Text
Заголовок : Forced
Язык : German
Default : Нет
Forced : Нет
Текст #4
Идентификатор : 8
Формат : UTF-8
Идентификатор кодека : S_TEXT/UTF8
Идентификатор кодека/Информация : UTF-8 Plain Text
Заголовок : Forced
Язык : Danish
Default : Нет
Forced : Нет
Меню
00:00:00.000 : en:00:00:00.000
00:08:35.390 : en:00:08:35.390
00:15:05.363 : en:00:15:05.363
00:22:43.237 : en:00:22:43.237
00:30:14.855 : en:00:30:14.855
00:37:46.556 : en:00:37:46.556
00:45:28.935 : en:00:45:28.935
00:54:44.990 : en:00:54:44.990
01:03:20.463 : en:01:03:20.463
01:10:37.275 : en:01:10:37.275
01:20:00.963 : en:01:20:00.963
01:27:53.894 : en:01:27:53.894
-

Скриншоты

[Профиль] [ЛС]
Кто просматривает тему:

Показать сообщения:    

Текущее время: Сегодня 05:48

Часовой пояс: GMT



Вы не можете начинать темы
Вы не можете отвечать на сообщения
Вы не можете редактировать свои сообщения
Вы не можете удалять свои сообщения
Вы не можете голосовать в опросах
Вы не можете прикреплять файлы к сообщениям
Вы не можете скачивать файлы