Моя земля / Under sandet (2015) BDRip 1080p | iTunes

 
Автор Сообщение

BOSS ®

Пол:

Стаж: 3 года

Сообщений: 7612

Откуда: ODESSA



Награды: 22 (Подробнее)

Mega Releaser 3 (Количество: 1) Mega Seeder 1 (Количество: 1) Top Keeper 3 (Количество: 1)
Торрент-статистика

Создавать темы 31-Июл-2017 17:34

[Цитировать]

Информация о фильме
Название: Моя земля
Оригинальное название: Under sandet
Год выпуска: 2015
Страна: Дания, Германия
Жанр: драма, военный, история-Перевод: Профессиональный многоголосый [iTunes]
Субтитры: русские (adelstein_s), английские (Full), немецкие (Full)
Продолжительность: 01:41:22-Режиссер: Мартин Зандвлиет
В ролях: Роланд Мюллер (Sgt. Carl Rasmussen), Луис Хофманн (Sebastian Schumann), Йоэль Басман (Helmut Morbach), Миккель Боэ Фёльсгор (Cpt. Ebbe Jensen), Лаура Бро (Karin), Zoe Zandvliet (Elisabeth, Karins Daughter), Mads Riisom (Soldier Peter), Oskar Böckelmann (Ludwig Haffke), Emil Belton (Ernst Lessner), Oskar Belton (Werner Lessner), Леон Сидел (Wilhelm Hahn), Александер Зайдель (Manfred)-Описание:
Май 1945 года. Дания постепенно приходит в себя после оккупации и освобождается от господства Германии. Однако все западное побережье все еще заминировано - сюрприз союзным войскам. По решению военного командования, разминирование будет проводиться с помощью военнопленных. Сержанту Расмуссену категорически не везет: в его распоряжение поступают совсем молоденькие немецкие солдаты, мальчишки, еще вчера списывавшие друг у друга на контрольной...-Рейтинг:

MPAA: R - Лицам до 17 лет обязательно присутствие взрослого-Качество: BDRip 1080p
Формат: MKV
Видео: AVC, 1920x804 (2.40:1), 9114 kbps, 24 fps, 0,246 bpp
Аудио №1: русский / AC3 / 5.1 / 48 kHz / 384 kbps / |MVO|
Аудио №2: немецкий / DTS / 5.1 / 48 kHz / 1509 kbps / 24 bit
Навигация по главам: есть-

ОтчетМедиаИнфо

General
Unique ID : 232642361791338121911030501888983273909 (0xAF054A01D8F625FD80026BFD024F91B5)
Complete name : E:Land.of.Mine.2015.BDRip.1080p.mkv
Format : Matroska
Format version : Version 4 / Version 2
File size : 7.80 GiB
Duration : 1 h 41 min
Overall bit rate : 11.0 Mb/s
Movie name : Land of Mine (2015) BDRip 1080p
Encoded date : UTC 2017-07-31 17:03:01
Writing application : mkvmerge v14.0.0 ('Flow') 64bit
Writing library : libebml v1.3.4 + libmatroska v1.4.5
Video
ID : 1
Format : AVC
Format/Info : Advanced Video Codec
Format profile : High@L4.1
Format settings, CABAC : Yes
Format settings, ReFrames : 5 frames
Codec ID : V_MPEG4/ISO/AVC
Duration : 1 h 41 min
Bit rate : 9 115 kb/s
Width : 1 920 pixels
Height : 804 pixels
Display aspect ratio : 2.40:1
Frame rate mode : Constant
Frame rate : 24.000 FPS
Color space : YUV
Chroma subsampling : 4:2:0
Bit depth : 8 bits
Scan type : Progressive
Bits/(Pixel*Frame) : 0.246
Stream size : 6.45 GiB (83%)
Title : Land.of.Mine.2015.1080p.BluRay.DTS.x264-EPiC@HDArea
Writing library : x264 core 142 r2431+42 c69a006 tMod [8-bit@all X86_64]
Encoding settings : cabac=1 / ref=5 / deblock=1:-3:-3 / analyse=0x3:0x133 / me=umh / subme=11 / psy=1 / fade_compensate=0.00 / psy_rd=0.90:0.00 / mixed_ref=1 / me_range=32 / chroma_me=1 / trellis=2 / 8x8dct=1 / cqm=0 / deadzone=21,11 / fast_pskip=0 / chroma_qp_offset=-2 / threads=12 / lookahead_threads=2 / sliced_threads=0 / nr=0 / decimate=0 / interlaced=0 / bluray_compat=0 / constrained_intra=0 / fgo=0 / bframes=8 / b_pyramid=2 / b_adapt=2 / b_bias=0 / direct=3 / weightb=1 / open_gop=0 / weightp=2 / keyint=240 / keyint_min=24 / scenecut=40 / intra_refresh=0 / rc_lookahead=60 / rc=crf / mbtree=0 / crf=16.5000 / qcomp=0.60 / qpmin=0:0:0 / qpmax=69:69:69 / qpstep=4 / vbv_maxrate=40000 / vbv_bufsize=30000 / crf_max=0.0 / nal_hrd=none / filler=0 / ip_ratio=1.40 / pb_ratio=1.30 / aq=1:0.90 / aq-sensitivity=10.00 / aq-factor=1.00:1.00:1.00 / aq2=0 / aq3=0
Language : Multiple languages
Default : Yes
Forced : No
Audio #1
ID : 2
Format : AC-3
Format/Info : Audio Coding 3
Mode extension : CM (complete main)
Format settings, Endianness : Big
Codec ID : A_AC3
Duration : 1 h 41 min
Bit rate mode : Constant
Bit rate : 384 kb/s
Channel(s) : 6 channels
Channel positions : Front: L C R, Side: L R, LFE
Sampling rate : 48.0 kHz
Frame rate : 31.250 FPS (1536 spf)
Compression mode : Lossy
Stream size : 278 MiB (3%)
Title : MVO | iTunes
Language : Russian
Default : Yes
Forced : No
Audio #2
ID : 3
Format : DTS
Format/Info : Digital Theater Systems
Mode : 16
Format settings, Endianness : Big
Codec ID : A_DTS
Duration : 1 h 41 min
Bit rate mode : Constant
Bit rate : 1 509 kb/s
Channel(s) : 6 channels
Channel positions : Front: L C R, Side: L R, LFE
Sampling rate : 48.0 kHz
Frame rate : 93.750 FPS (512 spf)
Bit depth : 24 bits
Compression mode : Lossy
Stream size : 1.07 GiB (14%)
Title : Original
Language : German
Default : No
Forced : No
Text #1
ID : 4
Format : UTF-8
Codec ID : S_TEXT/UTF8
Codec ID/Info : UTF-8 Plain Text
Duration : 1 h 34 min
Bit rate : 57 b/s
Count of elements : 672
Stream size : 39.9 KiB (0%)
Title : adelstein_s
Language : Russian
Default : No
Forced : No
Text #2
ID : 5
Format : UTF-8
Codec ID : S_TEXT/UTF8
Codec ID/Info : UTF-8 Plain Text
Duration : 1 h 34 min
Bit rate : 31 b/s
Count of elements : 670
Stream size : 21.7 KiB (0%)
Title : Full
Language : English
Default : No
Forced : No
Text #3
ID : 6
Format : UTF-8
Codec ID : S_TEXT/UTF8
Codec ID/Info : UTF-8 Plain Text
Duration : 1 h 34 min
Bit rate : 6 b/s
Count of elements : 103
Stream size : 4.55 KiB (0%)
Title : Full
Language : German
Default : No
Forced : No
Menu
00:00:00.000 : en:00:00:00.000
00:01:38.042 : en:00:01:38.042
00:07:02.958 : en:00:07:02.958
00:11:25.667 : en:00:11:25.667
00:18:15.958 : en:00:18:15.958
00:22:58.875 : en:00:22:58.875
00:28:15.375 : en:00:28:15.375
00:34:04.250 : en:00:34:04.250
00:39:08.458 : en:00:39:08.458
00:45:48.458 : en:00:45:48.458
00:51:09.250 : en:00:51:09.250
00:56:47.000 : en:00:56:47.000
01:03:13.917 : en:01:03:13.917
01:07:33.125 : en:01:07:33.125
01:13:37.667 : en:01:13:37.667
01:18:17.042 : en:01:18:17.042
01:20:26.542 : en:01:20:26.542
01:25:22.167 : en:01:25:22.167
01:31:34.083 : en:01:31:34.083
01:35:51.500 : en:01:35:51.500

Скриншоты

[Профиль] [ЛС]
Кто просматривает тему:

Показать сообщения:    

Текущее время: Сегодня 02:56

Часовой пояс: GMT



Вы не можете начинать темы
Вы не можете отвечать на сообщения
Вы не можете редактировать свои сообщения
Вы не можете удалять свои сообщения
Вы не можете голосовать в опросах
Вы не можете прикреплять файлы к сообщениям
Вы не можете скачивать файлы