Моя земля / Under sandet (Мартин Зандвлиет) [2015 г., драма, военный, история, BDRip-AVC] [MVO (iTunes)]

 
Автор Сообщение

Bathory ®

Пол:

Стаж: 1 год 5 месяцев

Сообщений: 281



Награды: 3 (Подробнее)

Girls (Количество: 1) Друг (Количество: 1) За внесенный вклад в развитие сайта (Количество: 1)
Торрент-статистика

Создавать темы 31-Июл-2017 06:51

[Цитировать]

Моя земля / Under sandet- Информация о фильме
Название: Моя земля
Оригинальное название: Under sandet / Land Of Mine
Год выхода: 2015
Жанр: Драма, военный, история
Режиссер: Мартин Зандвлиет / Martin Zandvliet
В ролях: Роланд Мюллер, Луис Хофманн, Йоэль Басман, Миккель Боэ Фёльсгор, Лаура Бро, Зое Зандвлиет, Мадс Риизом, Оскар Бёкельманн, Эмиль Бельтон, Оскар Бельтон
О фильме:
Май 1945 года. Дания постепенно приходит в себя после оккупации и освобождается от господства Германии. Однако все западное побережье все еще заминировано - сюрприз союзным войскам. По решению военного командования, разминирование будет проводиться с помощью военнопленных. Сержанту Расмуссену категорически не везет: в его распоряжение поступают совсем молоденькие немецкие солдаты, мальчишки, еще вчера списывавшие друг у друга на контрольной...

Страна: Дания, Германия
Студия: Amusement Park Films, Nordisk Film A/S, Zweites Deutsches Fernsehen (ZDF)
Продолжительность: 01:41:22
Перевод: Профессиональный (многоголосый, закадровый) | iTunes
Файл
Формат: MKV
Качество: BDRip-AVC | BDRemux 1080p |
Видео: 1032x432, 2628 kbps, 24 fps, 0,246 Bits/(Pixel*Frame)
Звук: AC3, 48 kHz, 6 ch, 384 kbps
Субтитры: русские, английские, немецкие

MI

Общее
Unique ID : 239422941030374409396062659073892835968 (0xB41F2E5FDED086E5B0625DE5C3A66280)
Complete name : E:\Under sandet.2015.BDRip-AVC.MegaPeer.mkv
Format : Matroska
Format version : Version 4 / Version 2
File size : 2,13 Гбайт
Duration : 1 ч. 41 м.
Overall bit rate : 3014 Кбит/сек
Encoded date : UTC 2017-07-31 04:16:23
Writing application : mkvmerge v14.0.0 ('Flow') 64bit
Writing library : libebml v1.3.4 + libmatroska v1.4.5
Видео
ID : 1
Format : AVC
Format/Info : Advanced Video Codec
Format profile : High@L4.1
Format settings, CABAC : Да
Format settings, ReFrames : 11 кадров
Codec ID : V_MPEG4/ISO/AVC
Duration : 1 ч. 41 м.
Bit rate : 2628 Кбит/сек
Width : 1032 пикселя
Height : 432 пикселя
Display aspect ratio : 2,40:1
Frame rate mode : Постоянный
Frame rate : 24,000 кадра/сек
Color space : YUV
Chroma subsampling : 4:2:0
Bit depth : 8 бит
Scan type : Прогрессивная
Bits/(Pixel*Frame) : 0.246
Stream size : 1,86 Гбайт (87%)
Writing library : x264 core 152 r2851 ba24899
Encoding settings : cabac=1 / ref=11 / deblock=1:-3:-2 / analyse=0x3:0x113 / me=umh / subme=11 / psy=1 / psy_rd=1.00:0.07 / mixed_ref=1 / me_range=48 / chroma_me=1 / trellis=2 / 8x8dct=1 / cqm=0 / deadzone=21,11 / fast_pskip=0 / chroma_qp_offset=-3 / threads=12 / lookahead_threads=3 / sliced_threads=0 / nr=0 / decimate=0 / interlaced=0 / bluray_compat=0 / constrained_intra=0 / bframes=14 / b_pyramid=2 / b_adapt=2 / b_bias=0 / direct=3 / weightb=1 / open_gop=0 / weightp=2 / keyint=240 / keyint_min=24 / scenecut=0 / intra_refresh=0 / rc_lookahead=60 / rc=2pass / mbtree=1 / bitrate=2628 / ratetol=1.0 / qcomp=0.60 / qpmin=0 / qpmax=51 / qpstep=4 / cplxblur=15.0 / qblur=0.5 / vbv_maxrate=50000 / vbv_bufsize=62500 / nal_hrd=none / filler=0 / ip_ratio=1.40 / aq=2:1.00
Default : Да
Forced : Нет
Аудио
ID : 2
Format : AC-3
Format/Info : Audio Coding 3
Mode extension : CM (complete main)
Format settings, Endianness : Big
Codec ID : A_AC3
Duration : 1 ч. 41 м.
Bit rate mode : Постоянный
Bit rate : 384 Кбит/сек
Channel(s) : 6 каналов
Channel positions : Front: L C R, Side: L R, LFE
Sampling rate : 48,0 КГц
Frame rate : 31,250 кадров/сек (1536 spf)
Compression mode : С потерями
Stream size : 278 Мбайт (13%)
Language : Russian
Default : Да
Forced : Нет
Текст #1
ID : 3
Format : UTF-8
Codec ID : S_TEXT/UTF8
Codec ID/Info : UTF-8 Plain Text
Duration : 1 ч. 34 м.
Bit rate : 57 бит/сек
Count of elements : 672
Stream size : 39,9 Кбайт (0%)
Title : adelstein_s
Language : Russian
Default : Нет
Forced : Нет
Текст #2
ID : 4
Format : UTF-8
Codec ID : S_TEXT/UTF8
Codec ID/Info : UTF-8 Plain Text
Duration : 1 ч. 34 м.
Bit rate : 31 бит/сек
Count of elements : 670
Stream size : 21,7 Кбайт (0%)
Title : ENGLiSH
Language : English
Default : Нет
Forced : Нет
Текст #3
ID : 5
Format : UTF-8
Codec ID : S_TEXT/UTF8
Codec ID/Info : UTF-8 Plain Text
Duration : 1 ч. 34 м.
Bit rate : 6 бит/сек
Count of elements : 103
Stream size : 4,55 Кбайт (0%)
Title : Original
Language : German
Default : Нет
Forced : Нет
Меню
00:00:00.000 : en:00:00:00.000
00:01:38.042 : en:00:01:38.042
00:07:02.958 : en:00:07:02.958
00:11:25.667 : en:00:11:25.667
00:18:15.958 : en:00:18:15.958
00:22:58.875 : en:00:22:58.875
00:28:15.375 : en:00:28:15.375
00:34:04.250 : en:00:34:04.250
00:39:08.458 : en:00:39:08.458
00:45:48.458 : en:00:45:48.458
00:51:09.250 : en:00:51:09.250
00:56:47.000 : en:00:56:47.000
01:03:13.917 : en:01:03:13.917
01:07:33.125 : en:01:07:33.125
01:13:37.667 : en:01:13:37.667
01:18:17.042 : en:01:18:17.042
01:20:26.542 : en:01:20:26.542
01:25:22.167 : en:01:25:22.167
01:31:34.083 : en:01:31:34.083
01:35:51.500 : en:01:35:51.500

Скриншоты

Релиз:
[Профиль] [ЛС]
Кто просматривает тему:

Показать сообщения:    

Текущее время: Сегодня 05:55

Часовой пояс: GMT



Вы не можете начинать темы
Вы не можете отвечать на сообщения
Вы не можете редактировать свои сообщения
Вы не можете удалять свои сообщения
Вы не можете голосовать в опросах
Вы не можете прикреплять файлы к сообщениям
Вы не можете скачивать файлы