Моя девушка – зомби / Burying the Ex (2014) DVDRip

 
Автор Сообщение

достали все ®

Пол:

Стаж: 1 год 8 месяцев

Сообщений: 6565



Награды: 12 (Подробнее)

Mega Seeder 4 (Количество: 1) Mega Seeder 5 (Количество: 1) Mega Releaser 1 (Количество: 1)
Торрент-статистика

Создавать темы 20-Май-2015 02:43

[Цитировать]

-Моя девушка – зомби / Burying the Ex (2014) DVDRip- Производство: США
Жанр: Ужасы, Комедия
Режиссер: Джо Данте
Продюсер: Мэри Сыбриски, Карл Эффенсон, Дэвид Джонсон
Актеры: Антон Ельчин, Эшли Грин, Александра Даддарио, Оливер Купер, Озиома Акага, Марк Алан Браун, Эрика Боуи, Гэбриэлль Кристиан, Арчи Хан, Томоко Карина
Описание:
Фильм рассказывает о Максе и Эвелин, отношения которых сильно портятся после того, как они начинают жить вместе. Макс обнаруживает, что Эвелин — упрямая и привыкшая всех контролировать и всеми командовать телка, но боится разрывать с ней отношения. Судьба помогает ему в этой сложной жизненной ситуации: вследствие нелепой случайности Эвелин погибает, и Макс начинает жить полной жизнью. Вскоре он знакомится с Оливией и даже готовится начать с ней совместную жизнь, но Эвелин решает восстать из могилы и вернуть своего бойфренда любой ценой, даже если для этого ей придется его самого превратить в зомби.
http://sendfile.su/1119616
Дата мировой премьеры: 4 сентября 2014
Дата премьеры в РФ: 18 июня 2015, «Каскад»
Продолжительность: 01:25:50
Качество видео: DVDRip
Перевод: Двуголосый закадровый, любительский
Озвучка / Автор перевода: ColdFilm
Субтитры: Отсутствуют
Видеокодек: Xvid
Битрейт видео: ~2035 kbps
Размер кадра: 720x304
Аудио #1: MP3, 2 ch, 192 Кбит/с (Русский)
Аудио #2: АС3, 2 ch, 192 Кбит/с (Английский)

Mediainfo:

Общее
Полное имя                               : Burying.the.Ex.2014.L2.DVDRip.1,46Gb.avi
Формат                                   : AVI
Формат/Информация                        : Audio Video Interleave
Размер файла                             : 1,46 Гбайт
Продолжительность                        : 1 ч. 25 м.
Общий поток                              : 2433 Кбит/сек
Название фильма                          : Burying.the.Ex.2014.L2.DVDRip.1,46Gb
Жанр                                     : Horror/Comedy
Программа кодирования                    : VirtualDubMod 1.5.10.3 (build 2550/release)
Формат оригинала/Имя                     : Movie
Видео
Идентификатор                            : 0
Формат                                   : MPEG-4 Visual
Профиль формата                          : Advanced Simple@L5
Параметр BVOP формата                    : 2
Параметр QPel формата                    : Нет
Параметр GMC формата                     : Без точки перехода
Параметр матрицы формата                 : Выборочная
Идентификатор кодека                     : XVID
Идентификатор кодека/Подсказка           : XviD
Продолжительность                        : 1 ч. 25 м.
Битрейт                                  : 2035 Кбит/сек
Ширина                                   : 720 пикселей
Высота                                   : 304 пикселя
Соотношение сторон                       : 2,35:1
Частота кадров                           : 25,000 кадров/сек
Цветовое пространство                    : YUV
Субдискретизация насыщенности            : 4:2:0
Битовая глубина                          : 8 бит
Тип развёртки                            : Прогрессивная
Метод сжатия                             : С потерями
Бит/(Пиксели*Кадры)                      : 0.372
Размер потока                            : 1,22 Гбайт (84%)
Библиотека кодирования                   : XviD 73
Аудио #1
Идентификатор                            : 1
Формат                                   : MPEG Audio
Версия формата                           : Version 1
Профиль формата                          : Layer 3
Режим                                    : Joint stereo
Расширение режима                        : MS Stereo
Идентификатор кодека                     : 55
Идентификатор кодека/Подсказка           : MP3
Продолжительность                        : 1 ч. 25 м.
Вид битрейта                             : Постоянный
Битрейт                                  : 192 Кбит/сек
Каналы                                   : 2 канала
Частота                                  : 48,0 КГц
Метод сжатия                             : С потерями
Задержка видео                           : 6 мс.
Размер потока                            : 118 Мбайт (8%)
Выравнивание                             : Разделение по промежуткам
Продолжительность промежутка             : 40  мс. (1,00 видеокадр)
Время предзагрузки промежутка            : 500  мс.
Аудио #2
Идентификатор                            : 2
Формат                                   : AC-3
Формат/Информация                        : Audio Coding 3
Расширение режима                        : CM (complete main)
Параметр Endianness формата              : Big
Идентификатор кодека                     : 2000
Продолжительность                        : 1 ч. 25 м.
Вид битрейта                             : Постоянный
Битрейт                                  : 192 Кбит/сек
Каналы                                   : 2 канала
Расположение каналов                     : Front: L R
Частота                                  : 48,0 КГц
Битовая глубина                          : 16 бит
Метод сжатия                             : С потерями
Размер потока                            : 118 Мбайт (8%)
Выравнивание                             : Разделение по промежуткам
Продолжительность промежутка             : 40  мс. (1,00 видеокадр)
Время предзагрузки промежутка            : 500  мс.
Скриншоты:
[Профиль] [ЛС]
Кто просматривает тему:

Показать сообщения:    

Текущее время: Сегодня 18:16

Часовой пояс: GMT



Вы не можете начинать темы
Вы не можете отвечать на сообщения
Вы не можете редактировать свои сообщения
Вы не можете удалять свои сообщения
Вы не можете голосовать в опросах
Вы не можете прикреплять файлы к сообщениям
Вы не можете скачивать файлы