Моя вина / Mea culpa (2014) BDRip 720p | P

 
Автор Сообщение

sergej644 ®

Пол:

Стаж: 4 года 11 месяцев

Сообщений: 6043

Откуда: Soviet Union



Награды: Нет

Торрент-статистика

Создавать темы 18-Фев-2015 20:56

[Цитировать]

Информация о фильме
Название: Моя вина
Оригинальное название: Mea culpa
Год выхода: 2014
Жанр: Боевик, триллер
Режиссер: Фред Кавайе / Fred Cavayé
В ролях: Венсан Линдон, Жиль Леллуш, Надин Лабаки, Жиль Коэн, Макс Биссетт де Малглайв, Меди Садун, Велибор Топик, Сириль Леконт, Жиль Белломи, Саша Петронижевич
О фильме:
Франк и Симон напарники полицейские из Тулона. После трагической аварии Симон теряет всё: свою семейную жизнь, свою работу полицейского. Франк выходит сухим из воды. Шесть лет спустя под угрозой оказывается ставший случайным свидетелем преступления сын Симона Тео. Бывший полицейский готов на всё, чтобы защитить свою семью. Но для этого ему ему предстоит объединиться со своим бывшим напарником Франком.
Страна: Франция
Студия: 13eme Rue, Bad Company, Canal+ [fr], Cine, Gaumont
Продолжительность: 01:30:20
Перевод: Профессиональный (многоголосый закадровый)
Файл
Кодек: x264
Качество: BDRip 720p
Видео: MPEG-4 AVC, 6500 Кбит/с, 1280x544, 24,000 fps
Звук:
Аудио: Rus, AC3, 448 kb/s (6 ch), 48 kHz
Аудио 2: Fre, AC3, 640 kb/s (6 ch), 48 kHz
Субтитры: английские

MediaInfo

x264 [info]: frame I:824 Avg QP:11.49 size:130102
x264 [info]: frame P:35422 Avg QP:13.97 size: 56851
x264 [info]: frame B:93834 Avg QP:15.81 size: 24261
x264 [info]: consecutive B-frames: 6.2% 6.7% 11.7% 24.1% 13.9% 23.6% 4.2% 5.2% 1.0% 0.6% 0.4% 1.3% 1.0%
Format : Matroska
Format version : Version 4 / Version 2
File size : 4.78 GiB
Duration : 1h 30mn
Overall bit rate : 7 580 Kbps
Movie name : Tonik
Encoded date : UTC 2015-02-17 18:03:40
Writing application : mkvmerge v7.1.0 ('Good Love') 64bit built on Jul 27 2014 13:06:55
Writing library : libebml v1.3.0 + libmatroska v1.4.1
DURATION : 01:30:11.008000000
NUMBER_OF_FRAMES : 169094
NUMBER_OF_BYTES : 303016448
_STATISTICS_WRITING_APP : mkvmerge v7.1.0 ('Good Love') 64bit built on Jul 27 2014 13:06:55
_STATISTICS_WRITING_DATE_UTC : 2015-02-17 18:03:40
_STATISTICS_TAGS : BPS DURATION NUMBER_OF_FRAMES NUMBER_OF_BYTES
Video
ID : 1
Format : AVC
Format/Info : Advanced Video Codec
Format profile : High@L4.1
Format settings, CABAC : Yes
Format settings, ReFrames : 11 frames
Codec ID : V_MPEG4/ISO/AVC
Duration : 1h 30mn
Bit rate : 6 500 Kbps
Width : 1 280 pixels
Height : 544 pixels
Display aspect ratio : 2.35:1
Frame rate mode : Constant
Frame rate : 24.000 fps
Color space : YUV
Chroma subsampling : 4:2:0
Bit depth : 8 bits
Scan type : Progressive
Bits/(Pixel*Frame) : 0.389
Stream size : 4.00 GiB (84%)
Writing library : x264 core 133 r2334 a3ac64b
Encoding settings : cabac=1 / ref=11 / deblock=1:-3:-3 / analyse=0x3:0x113 / me=umh / subme=11 / psy=1 / psy_rd=1.05:0.00 / mixed_ref=1 / me_range=24 / chroma_me=1 / trellis=2 / 8x8dct=1 / cqm=0 / deadzone=21,11 / fast_pskip=0 / chroma_qp_offset=-2 / threads=3 / lookahead_threads=1 / sliced_threads=0 / nr=0 / decimate=0 / interlaced=0 / bluray_compat=0 / constrained_intra=0 / bframes=12 / b_pyramid=2 / b_adapt=2 / b_bias=0 / direct=3 / weightb=1 / open_gop=0 / weightp=2 / keyint=250 / keyint_min=24 / scenecut=40 / intra_refresh=0 / rc=2pass / mbtree=0 / bitrate=6500 / ratetol=1.0 / qcomp=0.60 / qpmin=0 / qpmax=69 / qpstep=4 / cplxblur=20.0 / qblur=0.5 / ip_ratio=1.40 / pb_ratio=1.30 / aq=1:0.60
Language : French
Default : Yes
Forced : No
DURATION : 01:30:20.000000000
NUMBER_OF_FRAMES : 130080
NUMBER_OF_BYTES : 4397527447
_STATISTICS_WRITING_APP : mkvmerge v7.1.0 ('Good Love') 64bit built on Jul 27 2014 13:06:55
_STATISTICS_WRITING_DATE_UTC : 2015-02-17 18:03:40
_STATISTICS_TAGS : BPS DURATION NUMBER_OF_FRAMES NUMBER_OF_BYTES
Audio #1
ID : 2
Format : AC-3
Format/Info : Audio Coding 3
Mode extension : CM (complete main)
Format settings, Endianness : Big
Codec ID : A_AC3
Duration : 1h 30mn
Bit rate mode : Constant
Bit rate : 448 Kbps
Channel(s) : 6 channels
Channel positions : Front: L C R, Side: L R, LFE
Sampling rate : 48.0 KHz
Bit depth : 16 bits
Compression mode : Lossy
Stream size : 289 MiB (6%)
Title : ELEKTRI4KA
Language : Russian
Default : Yes
Forced : No
Audio #2
ID : 3
Format : AC-3
Format/Info : Audio Coding 3
Mode extension : CM (complete main)
Format settings, Endianness : Big
Codec ID : A_AC3
Duration : 1h 30mn
Bit rate mode : Constant
Bit rate : 640 Kbps
Channel(s) : 6 channels
Channel positions : Front: L C R, Side: L R, LFE
Sampling rate : 48.0 KHz
Bit depth : 16 bits
Compression mode : Lossy
Stream size : 414 MiB (8%)
Language : French
Default : No
Forced : No
Text
ID : 4
Format : UTF-8
Codec ID : S_TEXT/UTF8
Codec ID/Info : UTF-8 Plain Text
Language : English
Default : No
Forced : No
Menu
00:00:00.000 : en:00:00:00.000
00:08:13.042 : en:00:08:13.042
00:15:13.542 : en:00:15:13.542
00:22:06.500 : en:00:22:06.500
00:31:27.458 : en:00:31:27.458
00:41:17.750 : en:00:41:17.750
00:44:57.208 : en:00:44:57.208
00:52:50.750 : en:00:52:50.750
01:01:10.583 : en:01:01:10.583
01:09:34.833 : en:01:09:34.833
01:17:26.042 : en:01:17:26.042
01:23:41.292 : en:01:23:41.292

Скриншоты

[Профиль] [ЛС]
Кто просматривает тему:

Показать сообщения:    

Текущее время: Сегодня 16:38

Часовой пояс: GMT



Вы не можете начинать темы
Вы не можете отвечать на сообщения
Вы не можете редактировать свои сообщения
Вы не можете удалять свои сообщения
Вы не можете голосовать в опросах
Вы не можете прикреплять файлы к сообщениям
Вы не можете скачивать файлы