Моя большая греческая свадьба 2 / My Big Fat Greek Wedding 2 (2016) BDRip 1080p | L

 
Автор Сообщение

достали все ®

Пол:

Стаж: 1 год 8 месяцев

Сообщений: 6515



Награды: 12 (Подробнее)

Top Releaser 4 (Количество: 1) Top Releaser 2 (Количество: 1) Mega Releaser 2 (Количество: 1)
Торрент-статистика

Создавать темы 14-Июн-2016 14:07

[Цитировать]

Моя большая греческая свадьба 2 / My Big Fat Greek Wedding 2
Страна: США Канада
Производство: Gold Circle Films, HBO Films, Playtone, Universal Pictures
Год выпуска: 2016
Жанр: мелодрама, комедия
Продолжительность: 01:33:53
Режиссер: Кирк Джонс
Автор сценария: Ниа Вардалос
В ролях: Ниа Вардалос, Джон Корбетт, Майкл Константин, Лэйни Казан, Андреа Мартин, Джиа Каридес, Джои Фатоне, Елена Кампурис
Описание: У главных героев первого фильма, Тулы Портокалос и Йена Миллера, подросла дочь, которая ждет не дождется уйти из-под крыла родителей...

Перевод: Любительский (многоголосый, закадровый) | Parovoz Production
Субтитры: английские (full + SDH)-Качество: BDRip 1080p
Формат: МКV
Видео кодек: AVC
Аудио кодек: АС3 | DTS
Видео: 1920x808 (2.40:1), 23.976 fps, MPEG-4 AVC ~10.2 Mbps avg
Аудио №1: 48.0 kHz, AC3 Dolby Digital, 2/0 (L,R) ch, ~384 kbps | RUS
Аудио №2: 48.0 kHz, DTS, 3/2 (L,C,R,l,r) + LFE ch, ~1 509 kbps | ENG
Формат субтитров UTF-8 Plain Text
Дата премьеры (мир): 15 марта 2016

Media Info

General
Unique ID : 197868002883980889591961296024550957009 (0x94DBFDBDE8C78F0E86003352B8D6DFD1)
Complete name : Grechanka.2.2016.L.1080p.BDRip.mkv
Format : Matroska
Format version : Version 4 / Version 2
File size : 7.90 GiB
Duration : 1h 33mn
Overall bit rate : 12.1 Mbps
Movie name : rustorrents.info
Encoded date : UTC 2016-06-13 15:25:59
Writing application : mkvmerge v6.1.0 ('Old Devil') built on Mar 4 2013 09:10:42
Writing library : libebml v1.3.0 + libmatroska v1.4.0
Video
ID : 1
Format : AVC
Format/Info : Advanced Video Codec
Format profile : High@L4.1
Format settings, CABAC : Yes
Format settings, ReFrames : 5 frames
Codec ID : V_MPEG4/ISO/AVC
Duration : 1h 33mn
Bit rate : 10.2 Mbps
Width : 1 920 pixels
Height : 808 pixels
Display aspect ratio : 2.40:1
Frame rate mode : Constant
Frame rate : 23.976 fps
Color space : YUV
Chroma subsampling : 4:2:0
Bit depth : 8 bits
Scan type : Progressive
Bits/(Pixel*Frame) : 0.273
Stream size : 6.50 GiB (82%)
Writing library : x264 core 148 r2692 64f4e24
Encoding settings : cabac=1 / ref=5 / deblock=1:0:0 / analyse=0x3:0x113 / me=umh / subme=8 / psy=1 / psy_rd=1.00:0.00 / mixed_ref=1 / me_range=16 / chroma_me=1 / trellis=1 / 8x8dct=1 / cqm=0 / deadzone=21,11 / fast_pskip=0 / chroma_qp_offset=-2 / threads=24 / lookahead_threads=4 / sliced_threads=0 / nr=0 / decimate=1 / interlaced=0 / bluray_compat=0 / constrained_intra=0 / bframes=3 / b_pyramid=2 / b_adapt=2 / b_bias=0 / direct=3 / weightb=1 / open_gop=0 / weightp=2 / keyint=250 / keyint_min=23 / scenecut=40 / intra_refresh=0 / rc_lookahead=50 / rc=2pass / mbtree=1 / bitrate=10161 / ratetol=1.0 / qcomp=0.60 / qpmin=0 / qpmax=69 / qpstep=4 / cplxblur=20.0 / qblur=0.5 / ip_ratio=1.40 / aq=1:1.00
Language : English
Default : Yes
Forced : No
Audio #1
ID : 2
Format : AC-3
Format/Info : Audio Coding 3
Mode extension : CM (complete main)
Format settings, Endianness : Big
Codec ID : A_AC3
Duration : 1h 33mn
Bit rate mode : Constant
Bit rate : 384 Kbps
Channel(s) : 2 channels
Channel positions : Front: L R
Sampling rate : 48.0 KHz
Compression mode : Lossy
Stream size : 258 MiB (3%)
Language : Russian
Default : Yes
Forced : Yes
Audio #2
ID : 3
Format : DTS
Format/Info : Digital Theater Systems
Mode : 16
Format settings, Endianness : Big
Codec ID : A_DTS
Duration : 1h 33mn
Bit rate mode : Constant
Bit rate : 1 509 Kbps
Channel(s) : 6 channels
Channel positions : Front: L C R, Side: L R, LFE
Sampling rate : 48.0 KHz
Bit depth : 24 bits
Compression mode : Lossy
Stream size : 1 013 MiB (13%)
Language : English
Default : No
Forced : No
Text #1
ID : 4
Format : UTF-8
Codec ID : S_TEXT/UTF8
Codec ID/Info : UTF-8 Plain Text
Title : English regular
Language : English
Default : No
Forced : No
Text #2
ID : 5
Format : UTF-8
Codec ID : S_TEXT/UTF8
Codec ID/Info : UTF-8 Plain Text
Title : English sdh
Language : English
Default : No
Forced : No
Menu
00:00:00.000 : en:00:00:00.000
00:05:40.924 : en:00:05:40.924
00:10:40.431 : en:00:10:40.431
00:16:29.488 : en:00:16:29.488
00:20:45.578 : en:00:20:45.578
00:25:25.274 : en:00:25:25.274
00:30:37.127 : en:00:30:37.127
00:34:18.306 : en:00:34:18.306
00:39:20.984 : en:00:39:20.984
00:45:16.714 : en:00:45:16.714
00:50:53.050 : en:00:50:53.050
00:55:24.112 : en:00:55:24.112
01:00:03.058 : en:01:00:03.058
01:06:48.213 : en:01:06:48.213
01:09:38.132 : en:01:09:38.132
01:13:38.581 : en:01:13:38.581
01:19:09.995 : en:01:19:09.995
01:21:30.803 : en:01:21:30.803
01:24:08.877 : en:01:24:08.877
01:29:48.550 : en:01:29:48.550

Скриншоты

[Профиль] [ЛС]
Кто просматривает тему:

Показать сообщения:    

Текущее время: Сегодня 02:45

Часовой пояс: GMT



Вы не можете начинать темы
Вы не можете отвечать на сообщения
Вы не можете редактировать свои сообщения
Вы не можете удалять свои сообщения
Вы не можете голосовать в опросах
Вы не можете прикреплять файлы к сообщениям
Вы не можете скачивать файлы