Моцзинь: Забытая легенда / Mojin: The Lost Legend (2015) BDRip 1080p | IMAX | L2

 
Автор Сообщение

достали все ®

Пол:

Стаж: 1 год 8 месяцев

Сообщений: 6581



Награды: 12 (Подробнее)

Mega Seeder 2 (Количество: 1) Mega Seeder 5 (Количество: 1) Mega Seeder 4 (Количество: 1)
Торрент-статистика

Создавать темы 13-Апр-2016 14:06

[Цитировать]

Информация о фильме
Название: Моцзинь: Забытая легенда
Оригинальное название: Mojin: The Lost Legend
Год выхода: 2015
Жанр: приключения, ужасы, экшн
Режиссер: Вуершан / Wuershan
В ролях: Шу Ци, Чэнь Кунь, Хуан Бо, Анжела Бейби, Ся Юй, Лю Сяоцин, Черри Нган и др.

О фильме:
Бывший солдат Ху вместе с напарником промышляет расхищением гробниц. Он навлекает на себя ужасное проклятие и, чтобы освободиться, пускается в путешествие по мистическим местам Китая и Тибета в поисках разгадок древних тайн.
Страна: Китай
Продолжительность: 02:04:45
Перевод: Любительский (двухголосый закадровый) | Ворон и Sandairina
Файл
Кодек: x.264
Качество: BDRip 1080p
Видео: AVC, 1920x1040 (1.85:1), 24.000 fps, 8 526 Kbps (0.178 bit/pixel)
Звук:
Аудио #1: AC-3, 48.0 KHz, 6 ch, 448 Kbps, CBR (Russian)
Аудио #2: DTS, 48.0 KHz, 6 ch, 1 509 Kbps, CBR (Chinese)
Субтитры: Russian, English

Скриншоты

MediaInfo

Общее
Уникальный идентификатор : 246396307566050935898852508102774947745 (0xB95E33E3ACBA387C870BD150B332FFA1)
Полное имя : Mojin.The.Lost.Legend.2015.1080p.Ru.Ch.mkv
Формат : Matroska
Версия формата : Version 4 / Version 2
Размер файла : 9,14 Гбайт
Продолжительность : 2 ч. 4 м.
Общий поток : 10,5 Мбит/сек
Дата кодирования : UTC 2016-04-13 12:50:46
Программа кодирования : mkvmerge v7.8.0 ('River Man') 64bit built on Mar 27 2015 16:31:37
Библиотека кодирования : libebml v1.3.1 + libmatroska v1.4.2
Attachments : 9459.ttf / Baskerville_A.Z_PS_Normal-Italic_0.ttf / Lineage 2 Font.ttf / Oldtypn.TTF / ResavskaBGSans-Bold.ttf / tahoma.ttf / tahomabd_2.ttf
Видео
Идентификатор : 1
Формат : AVC
Формат/Информация : Advanced Video Codec
Профиль формата : High@L4.1
Параметр CABAC формата : Да
Параметр ReFrames формата : 4 кадра
Идентификатор кодека : V_MPEG4/ISO/AVC
Продолжительность : 2 ч. 4 м.
Битрейт : 8526 Кбит/сек
Ширина : 1920 пикселей
Высота : 1040 пикселей
Соотношение сторон : 1,85:1
Режим частоты кадров : Переменный
Частота кадров : 24,000 кадра/сек
Цветовое пространство : YUV
Субдискретизация насыщенности : 4:2:0
Битовая глубина : 8 бит
Тип развёртки : Прогрессивная
Бит/(Пиксели*Кадры) : 0.178
Размер потока : 7,43 Гбайт (81%)
Библиотека кодирования : x264 core 148 r2665 a01e339
Настройки программы : cabac=1 / ref=4 / deblock=1:0:0 / analyse=0x3:0x133 / me=umh / subme=7 / psy=1 / psy_rd=1.00:0.00 / mixed_ref=1 / me_range=16 / chroma_me=1 / trellis=1 / 8x8dct=1 / cqm=0 / deadzone=21,11 / fast_pskip=0 / chroma_qp_offset=-2 / threads=18 / lookahead_threads=3 / sliced_threads=0 / nr=0 / decimate=1 / interlaced=0 / bluray_compat=0 / constrained_intra=0 / bframes=3 / b_pyramid=2 / b_adapt=1 / b_bias=0 / direct=1 / weightb=1 / open_gop=0 / weightp=2 / keyint=250 / keyint_min=23 / scenecut=40 / intra_refresh=0 / rc_lookahead=40 / rc=2pass / mbtree=1 / bitrate=8526 / ratetol=1.0 / qcomp=0.60 / qpmin=0 / qpmax=69 / qpstep=4 / cplxblur=20.0 / qblur=0.5 / ip_ratio=1.40 / aq=1:1.00
Язык : Chinese
Default : Да
Forced : Нет
Аудио #1
Идентификатор : 2
Формат : AC-3
Формат/Информация : Audio Coding 3
Расширение режима : CM (complete main)
Параметр Endianness формата : Big
Идентификатор кодека : A_AC3
Продолжительность : 2 ч. 4 м.
Вид битрейта : Постоянный
Битрейт : 448 Кбит/сек
Каналы : 6 каналов
Расположение каналов : Front: L C R, Side: L R, LFE
Частота : 48,0 КГц
Частота кадров : 31,250 кадров/сек (1536 spf)
Метод сжатия : С потерями
Размер потока : 400 Мбайт (4%)
Заголовок : Ворон и Sandairina
Язык : Russian
Default : Да
Forced : Нет
Аудио #2
Идентификатор : 3
Формат : DTS
Формат/Информация : Digital Theater Systems
Режим : 16
Параметр Endianness формата : Big
Идентификатор кодека : A_DTS
Продолжительность : 2 ч. 4 м.
Вид битрейта : Постоянный
Битрейт : 1509 Кбит/сек
Каналы : 6 каналов
Расположение каналов : Front: L C R, Side: L R, LFE
Частота : 48,0 КГц
Частота кадров : 93,750 кадра/сек (512 spf)
Битовая глубина : 24 бит
Метод сжатия : С потерями
Размер потока : 1,31 Гбайт (14%)
Заголовок : Original
Язык : Chinese
Default : Нет
Forced : Нет
Текст #1
Идентификатор : 4
Формат : ASS
Идентификатор кодека : S_TEXT/ASS
Идентификатор кодека/Информация : Advanced Sub Station Alpha
Продолжительность : 1 ч. 48 м.
Битрейт : 2 бит/сек
Count of elements : 18
Метод сжатия : Без потерь
Размер потока : 1,68 Кбайт (0%)
Заголовок : Forsed
Язык : Russian
Default : Нет
Forced : Да
Текст #2
Идентификатор : 5
Формат : ASS
Идентификатор кодека : S_TEXT/ASS
Идентификатор кодека/Информация : Advanced Sub Station Alpha
Продолжительность : 1 ч. 51 м.
Битрейт : 158 бит/сек
Count of elements : 1662
Метод сжатия : Без потерь
Размер потока : 129 Кбайт (0%)
Заголовок : Full
Язык : Russian
Default : Нет
Forced : Нет
Текст #3
Идентификатор : 6
Формат : UTF-8
Идентификатор кодека : S_TEXT/UTF8
Идентификатор кодека/Информация : UTF-8 Plain Text
Продолжительность : 1 ч. 51 м.
Битрейт : 46 бит/сек
Count of elements : 1671
Размер потока : 38,3 Кбайт (0%)
Заголовок : Forced
Язык : English
Default : Нет
Forced : Нет
Меню
00:00:00.000 : en:00:00:00.000
00:18:23.875 : en:00:18:23.875
00:40:09.833 : en:00:40:09.833
00:59:50.417 : en:00:59:50.417
01:17:23.625 : en:01:17:23.625
01:40:42.958 : en:01:40:42.958
[Профиль] [ЛС]
Показать сообщения:    

Текущее время: Сегодня 06:05

Часовой пояс: GMT



Вы не можете начинать темы
Вы не можете отвечать на сообщения
Вы не можете редактировать свои сообщения
Вы не можете удалять свои сообщения
Вы не можете голосовать в опросах
Вы не можете прикреплять файлы к сообщениям
Вы не можете скачивать файлы