Моцзинь: Забытая легенда / Mojin: The Lost Legend (2015) HDRip | L2

 
Автор Сообщение

достали все ®

Пол:

Стаж: 1 год 8 месяцев

Сообщений: 6515



Награды: 12 (Подробнее)

Mega Seeder 1 (Количество: 1) Mega Seeder 2 (Количество: 1) Mega Seeder 5 (Количество: 1)
Торрент-статистика

Создавать темы 13-Апр-2016 14:05

[Цитировать]

Информация о фильме
Название: Моцзинь: Забытая легенда
Оригинальное название: Mojin: The Lost Legend
Год выхода: 2015
Жанр: приключения, ужасы, экшн
Режиссер: Вуершан / Wuershan
В ролях: Шу Ци, Чэнь Кунь, Хуан Бо, Анжела Бейби, Ся Юй, Лю Сяоцин, Черри Нган и др.

О фильме:
Бывший солдат Ху вместе с напарником промышляет расхищением гробниц. Он навлекает на себя ужасное проклятие и, чтобы освободиться, пускается в путешествие по мистическим местам Китая и Тибета в поисках разгадок древних тайн.
Страна: Китай
Продолжительность: 02:04:45
Перевод: Любительский (двухголосый закадровый) | Ворон и Sandairina
Файл
Кодек: XviD
Качество: HDRip
Видео: MPEG4, XviD, 720x304 (2.35:1), 24.000 fps, 1 915 Kbps (0.365 bit/pixel)
Звук: AC-3, 48.0 KHz, 6 ch, 448 Kbps, CBR
Субтитры: Русские (форсированные) , Русские(полные)

Скриншоты

MediaInfo

Общее
Полное имя : Mojin.The.Lost.Legend.2015.L2.2100.avi
Формат : AVI
Формат/Информация : Audio Video Interleave
Профиль формата : OpenDML
Размер файла : 2,07 Гбайт
Продолжительность : 2 ч. 4 м.
Общий поток : 2375 Кбит/сек
Программа кодирования : VirtualDubModRus 1.5.10.2 (build 2542/release)
Библиотека кодирования : VirtualDubMod build 2542/release
Видео
Идентификатор : 0
Формат : MPEG-4 Visual
Профиль формата : Advanced Simple@L5
Параметр BVOP формата : Да
Параметр QPel формата : Нет
Параметр GMC формата : Без точки перехода
Параметр матрицы формата : Default (H.263)
Идентификатор кодека : XVID
Идентификатор кодека/Подсказка : XviD
Продолжительность : 2 ч. 4 м.
Битрейт : 1915 Кбит/сек
Ширина : 720 пикселей
Высота : 304 пикселя
Соотношение сторон : 2,35:1
Частота кадров : 24,000 кадра/сек
Цветовое пространство : YUV
Субдискретизация насыщенности : 4:2:0
Битовая глубина : 8 бит
Тип развёртки : Прогрессивная
Метод сжатия : С потерями
Бит/(Пиксели*Кадры) : 0.365
Размер потока : 1,67 Гбайт (81%)
Библиотека кодирования : XviD 64
Аудио
Идентификатор : 1
Формат : AC-3
Формат/Информация : Audio Coding 3
Расширение режима : CM (complete main)
Параметр Endianness формата : Big
Идентификатор кодека : 2000
Продолжительность : 2 ч. 4 м.
Вид битрейта : Постоянный
Битрейт : 448 Кбит/сек
Каналы : 6 каналов
Расположение каналов : Front: L C R, Side: L R, LFE
Частота : 48,0 КГц
Частота кадров : 31,250 кадров/сек (1536 spf)
Метод сжатия : С потерями
Размер потока : 400 Мбайт (19%)
Выравнивание : Разделение по промежуткам
Продолжительность промежутка : 42 мс. (1,00 видеокадр)
Время предзагрузки промежутка : 500 мс.
[Профиль] [ЛС]
Показать сообщения:    

Текущее время: Сегодня 02:43

Часовой пояс: GMT



Вы не можете начинать темы
Вы не можете отвечать на сообщения
Вы не можете редактировать свои сообщения
Вы не можете удалять свои сообщения
Вы не можете голосовать в опросах
Вы не можете прикреплять файлы к сообщениям
Вы не можете скачивать файлы