Моцзинь: Долина червя / Yun nan chong gu / Mojin: The Worm Valley (2018) BDRip 1080p | L2

 
Author Message

BOSS ®

Gender:

Longevity: 6 years

Posts: 14809

Location: ODESSA



: 22 ()

Mega Releaser 3 (1) Top Seeder 3 (1) Mega Seeder 3 (1)
Торрент-статистика

Post 17-Oct-2020 18:42

[Quote]

Информация о фильме
Название: Моцзинь: Долина червя
Оригинальное название: Yun nan chong gu / Mojin: The Worm Valley
Год выхода: 2018
Жанр: Приключения, фэнтези
Режиссер: Фэй Син
В ролях: Чжан Лу Яо, Юй Хэн, Чэнь Юй Сы, Гу Сюань, Цай Хэн, Чэнь Тай Шэнь
О фильме:
Группа отважных исследователей древностей отправляется в пещеры провинции Юньнань. Там археологов поджидают затерянные гробницы, призраки, ловушки и, конечно же, свирепые монстры.
Доп. информация: Перевод осуществляла команда фансаб-группы "Aeterna temple" по заказу Batafurai team

Страна: Китай
Студия: Dream Author Pictures, Huayi Brothers Media, Tencent Penguin Pictures
Продолжительность: 01:50:18
Перевод: Любительский двухголосый | Ворон и Tess
Файл
Кодек: x.264
Качество: BDRip 1080p
Видео: MPEG-4 AVC, 15.9 Mбит/с, 1920x818, 24.000 кадр/с
Аудио #1: Русский (АС3, 6 ch, 448 Кбит/с, 48.0 KHz) Любительский (двухголосый, закадровый) Ворон и Tess
Аудио #2: Китайский (АС3, 6 ch, 640 Кбит/с, 48.0 KHz)
Субтитры: Русские (Forced), английские
► Без Рекламы!
Трейлер

MediaInfo

Источник: Mojin.The.Worm.Valley.2018.CHINESE.1080p.BluRay.x264.DTS-HD.MA.5.1-MT
General
Unique ID : 207907699161538881317914017263809662483 (0x9C6990FC35345485BA349AF245670E13)
Complete name : Mojin.The.Worm.Valley.2018.BDRip.1080p.mkv
Format : Matroska
Format version : Version 4
File size : 13.1 GiB
Duration : 1 h 50 min
Overall bit rate : 17.0 Mb/s
Encoded date : UTC 2020-10-15 08:35:39
Writing application : mkvmerge v7.1.0 ('Good Love') 64bit built on Jul 27 2014 13:06:55
Writing library : libebml v1.3.0 + libmatroska v1.4.1
Video
ID : 1
Format : AVC
Format/Info : Advanced Video Codec
Format profile : High@L4.1
Format settings : CABAC / 5 Ref Frames
Format settings, CABAC : Yes
Format settings, Reference fra : 5 frames
Codec ID : V_MPEG4/ISO/AVC
Duration : 1 h 50 min
Bit rate : 15.9 Mb/s
Width : 1 920 pixels
Height : 818 pixels
Display aspect ratio : 2.35:1
Frame rate mode : Constant
Frame rate : 24.000 FPS
Color space : YUV
Chroma subsampling : 4:2:0
Bit depth : 8 bits
Scan type : Progressive
Bits/(Pixel*Frame) : 0.422
Stream size : 12.2 GiB (94%)
Writing library : x264 core 157 r2938 2b00a84 TnP@MTeam Mod
Encoding settings : cabac=1 / ref=5 / deblock=1:-3:-3 / analyse=0x3:0x133 / me=umh / subme=10 / psy=1 / psy_rd=1.05:0.00 / mixed_ref=1 / me_range=32 / chroma_me=1 / trellis=2 / 8x8dct=1 / cqm=0 / deadzone=21,11 / fast_pskip=0 / chroma_qp_offset=-2 / threads=12 / lookahead_threads=2 / sliced_threads=0 / nr=0 / decimate=0 / interlaced=0 / bluray_compat=0 / constrained_intra=0 / bframes=8 / b_pyramid=2 / b_adapt=2 / b_bias=0 / direct=3 / weightb=1 / open_gop=0 / weightp=2 / keyint=250 / keyint_min=24 / scenecut=40 / intra_refresh=0 / rc_lookahead=250 / rc=crf / mbtree=0 / crf=16.1 / qcomp=0.60 / qpmin=0 / qpmax=69 / qpstep=4 / vbv_maxrate=62500 / vbv_bufsize=78125 / crf_max=0.0 / nal_hrd=none / filler=0 / ip_ratio=1.30 / pb_ratio=1.20 / aq=3:0.80
Language : Chinese
Default : Yes
Forced : No
Color range : Limited
Color primaries : BT.709
Matrix coefficients : BT.709
Audio #1
ID : 2
Format : AC-3
Format/Info : Audio Coding 3
Commercial name : Dolby Digital
Codec ID : A_AC3
Duration : 1 h 50 min
Bit rate mode : Constant
Bit rate : 448 kb/s
Channel(s) : 6 channels
Channel layout : L R C LFE Ls Rs
Sampling rate : 48.0 kHz
Frame rate : 31.250 FPS (1536 SPF)
Compression mode : Lossy
Stream size : 353 MiB (3%)
Title : DVO | Ворон и Tess
Language : Russian
Service kind : Complete Main
Default : Yes
Forced : No
Audio #2
ID : 3
Format : AC-3
Format/Info : Audio Coding 3
Commercial name : Dolby Digital
Codec ID : A_AC3
Duration : 1 h 50 min
Bit rate mode : Constant
Bit rate : 640 kb/s
Channel(s) : 6 channels
Channel layout : L R C LFE Ls Rs
Sampling rate : 48.0 kHz
Frame rate : 31.250 FPS (1536 SPF)
Compression mode : Lossy
Stream size : 505 MiB (4%)
Language : Chinese
Service kind : Complete Main
Default : No
Forced : No
Text #1
ID : 4
Format : UTF-8
Codec ID : S_TEXT/UTF8
Codec ID/Info : UTF-8 Plain Text
Duration : 1 h 40 min
Bit rate : 1 b/s
Count of elements : 17
Stream size : 894 Bytes (0%)
Title : Forced
Language : Russian
Default : Yes
Forced : No
Text #2
ID : 5
Format : UTF-8
Codec ID : S_TEXT/UTF8
Codec ID/Info : UTF-8 Plain Text
Duration : 1 h 40 min
Bit rate : 28 b/s
Count of elements : 867
Stream size : 21.1 KiB (0%)
Title : English-SRT
Language : English
Default : No
Forced : No
Text #3
ID : 6
Format : PGS
Muxing mode : zlib
Codec ID : S_HDMV/PGS
Codec ID/Info : Picture based subtitle format used on BDs/HD-DVDs
Duration : 1 h 40 min
Bit rate : 7 947 b/s
Count of elements : 1734
Stream size : 5.70 MiB (0%)
Title : English-PGS
Language : English
Default : No
Forced : No
Menu
00:00:00.000 : en:Chapter 01
00:07:03.167 : en:Chapter 02
00:14:30.375 : en:Chapter 03
00:25:42.375 : en:Chapter 04
00:36:04.667 : en:Chapter 05
00:50:55.583 : en:Chapter 06
00:59:54.583 : en:Chapter 07
01:11:45.375 : en:Chapter 08
01:22:51.000 : en:Chapter 09
01:29:22.375 : en:Chapter 10
01:42:26.583 : en:Chapter 11

Скриншоты

[Profile] [PM]
Display posts from previous:    

The time now is: Today 11:47

All times are GMT



You cannot post new topics in this forum
You cannot reply to topics in this forum
You cannot edit your posts in this forum
You cannot delete your posts in this forum
You cannot vote in polls in this forum
You cannot attach files in this forum
You cannot download files in this forum