Мохаве / Mojave (2015) BDRemux 1080p | L2

 
Автор Сообщение

BOSS ®

Пол:

Стаж: 2 года 1 месяц

Сообщений: 3735

Откуда: ODESSA



Награды: 20 (Подробнее)

Top Seeder 4 (Количество: 1) Top Releaser 3 (Количество: 1) Top Seeder 5 (Количество: 1)
Торрент-статистика

Создавать темы 29-Мар-2016 04:41

[Цитировать]

Информация о фильме
Название: Мохаве
Оригинальное название: Mojave
Год выхода: 2015
Жанр: Триллер
Режиссер: Уильям Монахэн
В ролях: Оскар Айзек, Гаррет Хедлунд, Марк Уолберг, Уолтон Гоггинс, Хейли Магнус, Мэтт Джонс, Даня Рамирес, Фрэн Кренц, Кристофер Нейман, Луиз Бургуан
О фильме:
История о художнике, который, чтобы пережить личный кризис, отправляется в пустыню. Там он встречает своего двойника - жестокого убийцу. С этого момента главный герой с суицидальных мыслей переключается на поиск возможностей выжить.

Страна: США
Студия: Atlas Independent, Henceforth, Henceforth Pictures, MICA Entertainment
Продолжительность: 01:33:09
Перевод: Любительский двухголосый (закадровый)
Файл
Кодек: MPEG-4
Качество: BDRemux 1080p
Видео: 1920x1080, 19.7 Mbit/s, 23.976 fps
Звук:
Аудио #1: 48.0 Khz, AC3, 2.0, 192 Kbps | Любительский двухголосый (закадровый), Parovoz Production |
Аудио #2: 48.0 Khz, DTS-HD MA, 5.1, 2812 Kbps | Оригинал |
Субтитры: Английские
Примечание: Без рекламы.

Media-info

Формат : Matroska
Версия формата : Version 4 / Version 2
Размер файла : 14,8 Гбайт
Продолжительность : 1 ч. 33 м.
Режим общего битрейта : Переменный
Общий поток : 22,7 Мбит/сек
Название фильма : Mojave.2015.BDREMUX.1080p
Дата кодирования : UTC 2016-03-27 18:48:16
Программа кодирования : mkvmerge v8.3.0 ('Over the Horizon') 64bit
Библиотека кодирования : libebml v1.3.1 + libmatroska v1.4.2
Обложка : Yes
Attachments : cover_land.jpg / small_cover.jpg / small_cover_land.jpg / cover.jpg
Видео
Идентификатор : 1
Формат : AVC
Формат/Информация : Advanced Video Codec
Профиль формата : High@L4.1
Параметр CABAC формата : Да
Параметр ReFrames формата : 4 кадра
Идентификатор кодека : V_MPEG4/ISO/AVC
Продолжительность : 1 ч. 33 м.
Вид битрейта : Переменный
Битрейт : 19,7 Мбит/сек
Максимальный битрейт : 37,0 Мбит/сек
Ширина : 1920 пикселей
Высота : 1080 пикселей
Соотношение сторон : 16:9
Режим частоты кадров : Постоянный
Частота кадров : 23,976 (24000/1001) кадра/сек
Цветовое пространство : YUV
Субдискретизация насыщенности : 4:2:0
Битовая глубина : 8 бит
Тип развёртки : Прогрессивная
Бит/(Пиксели*Кадры) : 0.397
Размер потока : 12,8 Гбайт (87%)
Язык : English
Default : Нет
Forced : Нет
Аудио #1
Идентификатор : 2
Формат : AC-3
Формат/Информация : Audio Coding 3
Расширение режима : CM (complete main)
Параметр Endianness формата : Big
Идентификатор кодека : A_AC3
Продолжительность : 1 ч. 33 м.
Вид битрейта : Постоянный
Битрейт : 192 Кбит/сек
Каналы : 2 канала
Расположение каналов : Front: L R
Частота : 48,0 КГц
Частота кадров : 31,250 кадров/сек (1536 spf)
Метод сжатия : С потерями
Размер потока : 128 Мбайт (1%)
Язык : Russian
Default : Да
Forced : Нет
Аудио #2
Идентификатор : 3
Формат : DTS
Формат/Информация : Digital Theater Systems
Профиль формата : MA / Core
Режим : 16
Параметр Endianness формата : Big
Идентификатор кодека : A_DTS
Продолжительность : 1 ч. 33 м.
Вид битрейта : Переменный / Постоянный
Битрейт : 2812 Кбит/сек / 1509 Кбит/сек
Каналы : 6 каналов
Расположение каналов : Front: L C R, Side: L R, LFE
Частота : 48,0 КГц
Частота кадров : 93,750 кадра/сек (512 spf)
Битовая глубина : 24 бит
Метод сжатия : Без потерь / Lossy
Размер потока : 1,83 Гбайт (12%)
Язык : English
Default : Нет
Forced : Нет
Текст
Идентификатор : 4
Формат : PGS
Режим смешивания : zlib
Идентификатор кодека : S_HDMV/PGS
Идентификатор кодека/Информация : Picture based subtitle format used on BDs/HD-DVDs
Продолжительность : 1 ч. 27 м.
Битрейт : 11,8 Кбит/сек
Count of elements : 1815
Размер потока : 7,40 Мбайт (0%)
Заголовок : English-PGS
Язык : English
Default : Нет
Forced : Нет
Меню
00:00:00.000 : en:Chapter 01
00:04:35.358 : en:Chapter 02
00:08:48.903 : en:Chapter 03
00:16:58.225 : en:Chapter 04
00:22:13.332 : en:Chapter 05
00:25:21.770 : en:Chapter 06
00:31:21.254 : en:Chapter 07
00:37:47.014 : en:Chapter 08
00:44:11.190 : en:Chapter 09
00:51:52.567 : en:Chapter 10
00:56:32.138 : en:Chapter 11
01:05:51.238 : en:Chapter 12
01:10:06.619 : en:Chapter 13
01:14:39.016 : en:Chapter 14
01:19:11.163 : en:Chapter 15
01:26:48.411 : en:Chapter 16

Скриншоты

[Профиль] [ЛС]
Показать сообщения:    

Текущее время: Сегодня 00:34

Часовой пояс: GMT



Вы не можете начинать темы
Вы не можете отвечать на сообщения
Вы не можете редактировать свои сообщения
Вы не можете удалять свои сообщения
Вы не можете голосовать в опросах
Вы не можете прикреплять файлы к сообщениям
Вы не можете скачивать файлы