Мотылек / Papillon (1973) BDRip 1080p

 
Автор Сообщение

Russian Mafia ®

Пол:

Стаж: 1 год 8 месяцев

Сообщений: 4247



Награды: 10 (Подробнее)

Mega Seeder 3 (Количество: 1) Mega Seeder 5 (Количество: 1) Top Releaser 2 (Количество: 1)
Торрент-статистика

Создавать темы 21-Окт-2015 06:04

[Цитировать]

Информация о фильме
Название: Мотылек
Оригинальное название: Papillon
Год выхода: 1973
Жанр: Драма, криминал, биография
Режиссер: Франклин Дж. Шаффнер
В ролях: Стив МакКуин, Дастин Хоффман, Виктор Джори, Дон Гордон, Энтони Зерби, Роберт Димен, Вудроу Парфри, Билл Муми, Джордж Кулурис, Рэтна Ассан
О фильме:
За убийство, которое он не совершал, взломщик сейфов Анри Шарьер приговорен к пожизненному заключению и отправлен на каторгу. Прозванный «Мотыльком» из-за того, что на его груди вытатуирован этот символ свободы, Анри совершает несколько попыток побега. В наказание власти надолго сажают его в карцер, а затем отправляют во Французскую Гвиану на остров Дьявола, со всех сторон окруженный океаном.
Из этой самой страшной каторжной тюрьмы не удавалось бежать ни одному заключенному. Но ничто не может заставить Анри пасть духом и сломить его решимость вырваться на волю…

Страна: США, Франция
Студия: Allied Artists Pictures Corporation, Corona-General, Solar Productions
Продолжительность: 02:30:47
Перевод: Профессиональный (многоголосый закадровый) DVD Магия + Профессиональный (многоголосый, закадровый) телеканал ОРТ + Профессиональный (двухголосый, закадровый) П. Гланц и И. Королева + Оригинал
Файл
Кодек: x264
Качество: BDRip 1080p (источник: BLUEBIRD / Blu-ray Disc / 1080p)
Видео: 1920х802 (2.40:1), 9308 Kbps, 23.976 fps, 0.252 bit/pixel
Аудио #1: 48.0 kHz, AC3 Dolby Digital, 2/0 (L,R) ch, 192 kbps [Многоголосый, DVD Магия]
Аудио #2: 48.0 kHz, AC3 Dolby Digital, 2/0 (L,R) ch, 192 kbps [Многоголосый, телеканал ОРТ]
Аудио #3: 48.0 kHz, AC3 Dolby Digital, 3/2 (L,C,R,l,r) + LFE ch, 640 kbps [Двухголосый, П. Гланц и И. Королева]
Аудио #4: 48.0 kHz, AC3 Dolby Digital, 3/2 (L,C,R,l,r) + LFE ch, 640 kbps [Оригинал, Английский]
Аудио #5: 48.0 kHz, AC3 Dolby Digital, 3/2 (L,C,R,l,r) + LFE ch, 640 kbps [Авторский, А. Гаврилов] Отдельно на disk.yandex.ru
Аудио #6: 48.0 kHz, AC3 Dolby Digital, 3/2 (L,C,R,l,r) + LFE ch, 640 kbps [Авторский, М. Иванов] Отдельно на disk.yandex.ru
Субтитры: Русские, английские [SDH]
Семпл

x264

x264 [info]: frame I:1445 Avg QP:17.90 size:190686
x264 [info]: frame P:43324 Avg QP:20.79 size: 88189
x264 [info]: frame B:172144 Avg QP:22.81 size: 37354

MediaInfo

General
Unique ID : 230958468459863610771369311729917549329 (0xADC0FBA7F69B1A928BB7A9EC1B8ADB11)
Complete name : E:Papillon.1973.x264.BDRip.1080p.mkv
Format : Matroska
Format version : Version 2
File size : 11.6 GiB
Duration : 2h 30mn
Overall bit rate : 11.0 Mbps
Encoded date : UTC 2013-12-22 06:16:39
Writing application : mkvmerge v5.8.0 ('No Sleep / Pillow') built on Sep 2 2012 15:37:04
Writing library : libebml v1.2.3 + libmatroska v1.3.0
Video
ID : 1
Format : AVC
Format/Info : Advanced Video Codec
Format profile : High@L4.1
Format settings, CABAC : Yes
Format settings, ReFrames : 5 frames
Codec ID : V_MPEG4/ISO/AVC
Duration : 2h 30mn
Bit rate : 9 308 Kbps
Width : 1 920 pixels
Height : 802 pixels
Display aspect ratio : 2.40:1
Frame rate mode : Constant
Frame rate : 23.976 fps
Color space : YUV
Chroma subsampling : 4:2:0
Bit depth : 8 bits
Scan type : Progressive
Bits/(Pixel*Frame) : 0.252
Stream size : 9.58 GiB (83%)
Writing library : x264 core 140 r2377 1ca7bb9
Encoding settings : cabac=1 / ref=5 / deblock=1:-3:-3 / analyse=0x3:0x133 / me=tesa / subme=11 / psy=1 / psy_rd=1.00:0.00 / mixed_ref=1 / me_range=32 / chroma_me=1 / trellis=2 / 8x8dct=1 / cqm=0 / deadzone=21,11 / fast_pskip=0 / chroma_qp_offset=-2 / threads=12 / lookahead_threads=3 / sliced_threads=0 / nr=0 / decimate=0 / interlaced=0 / bluray_compat=0 / constrained_intra=0 / bframes=10 / b_pyramid=2 / b_adapt=2 / b_bias=0 / direct=3 / weightb=0 / open_gop=0 / weightp=2 / keyint=240 / keyint_min=23 / scenecut=40 / intra_refresh=0 / rc=2pass / mbtree=0 / bitrate=9308 / ratetol=1.0 / qcomp=0.60 / qpmin=0 / qpmax=69 / qpstep=4 / cplxblur=20.0 / qblur=0.5 / ip_ratio=1.40 / pb_ratio=1.30 / aq=1:1.00
Language : English
Default : Yes
Forced : No
Audio #1
ID : 2
Format : AC-3
Format/Info : Audio Coding 3
Mode extension : CM (complete main)
Format settings, Endianness : Big
Codec ID : A_AC3
Duration : 2h 30mn
Bit rate mode : Constant
Bit rate : 192 Kbps
Channel count : 2 channels
Channel positions : Front: L R
Sampling rate : 48.0 KHz
Bit depth : 16 bits
Compression mode : Lossy
Stream size : 207 MiB (2%)
Title : Многоголосый, DVD Магия
Language : Russian
Default : Yes
Forced : No
Audio #2
ID : 3
Format : AC-3
Format/Info : Audio Coding 3
Mode extension : CM (complete main)
Format settings, Endianness : Big
Codec ID : A_AC3
Duration : 2h 30mn
Bit rate mode : Constant
Bit rate : 192 Kbps
Channel count : 2 channels
Channel positions : Front: L R
Sampling rate : 48.0 KHz
Bit depth : 16 bits
Compression mode : Lossy
Stream size : 207 MiB (2%)
Title : Многоголосый, телеканал ОРТ
Language : Russian
Default : No
Forced : No
Audio #3
ID : 4
Format : AC-3
Format/Info : Audio Coding 3
Mode extension : CM (complete main)
Format settings, Endianness : Big
Codec ID : A_AC3
Duration : 2h 30mn
Bit rate mode : Constant
Bit rate : 640 Kbps
Channel count : 6 channels
Channel positions : Front: L C R, Side: L R, LFE
Sampling rate : 48.0 KHz
Bit depth : 16 bits
Compression mode : Lossy
Stream size : 690 MiB (6%)
Title : Двухголосый, П. Гланц и И. Королева
Language : Russian
Default : No
Forced : No
Audio #4
ID : 5
Format : AC-3
Format/Info : Audio Coding 3
Mode extension : CM (complete main)
Format settings, Endianness : Big
Codec ID : A_AC3
Duration : 2h 30mn
Bit rate mode : Constant
Bit rate : 640 Kbps
Channel count : 6 channels
Channel positions : Front: L C R, Side: L R, LFE
Sampling rate : 48.0 KHz
Bit depth : 16 bits
Compression mode : Lossy
Stream size : 690 MiB (6%)
Title : Оригинал, Английский
Language : English
Default : No
Forced : No
Text #1
ID : 6
Format : UTF-8
Codec ID : S_TEXT/UTF8
Codec ID/Info : UTF-8 Plain Text
Language : Russian
Default : No
Forced : No
Text #2
ID : 7
Format : UTF-8
Codec ID : S_TEXT/UTF8
Codec ID/Info : UTF-8 Plain Text
Language : English
Default : No
Forced : No
Menu
00:00:00.000 : en:
00:03:58.321 : en:
00:08:21.083 : en:
00:10:31.380 : en:
00:15:24.006 : en:
00:16:58.642 : en:
00:22:14.541 : en:
00:25:40.413 : en:
00:30:16.814 : en:
00:35:01.933 : en:
00:40:35.850 : en:
00:43:53.005 : en:
00:45:50.456 : en:
00:51:21.953 : en:
00:56:38.561 : en:
00:58:26.377 : en:
01:07:21.954 : en:
01:09:26.662 : en:
01:12:26.759 : en:
01:17:45.911 : en:
01:21:02.691 : en:
01:24:08.334 : en:
01:26:05.535 : en:
01:32:59.991 : en:
01:35:57.418 : en:
01:37:55.953 : en:
01:42:36.358 : en:
01:44:18.627 : en:
01:47:37.200 : en:
01:51:02.238 : en:
01:54:34.742 : en:
02:02:55.910 : en:
02:07:06.827 : en:
02:10:31.990 : en:
02:14:08.623 : en:
02:16:37.147 : en:
02:20:06.523 : en:
02:24:07.472 : en:
02:27:12.990 : en:
[Профиль] [ЛС]
Кто просматривает тему:

Форум Тема Автор Размер
Фильмы (DVD 5/9) Багровый цвет снегопада (Владимир Мотыль) [2009, Россия, драма, DVD5 (Сжатый)] TorrentFilm 4.09 GB
Фильмы (DVD 5/9) Багровый цвет снегопада (Владимир Мотыль) [2009, Россия, драма, DVD9] TorrentFilm 7.08 GB
Фильмы (HD Rips | 720p, 1080p) Багровый цвет снегопада (Владимир Мотыль) [2009, Россия, драма, мелодрама, BDRip 720p] TorrentFilm 7.22 GB
Фильмы (HD Rips | 720p, 1080p) Багровый цвет снегопада (Владимир Мотыль) [2009, Россия, драма, мелодрама, Blu-ray disc 1080p] TorrentFilm 31.47 GB
Фильмы (DVD 5/9) Белое солнце пустыни (Владимир Мотыль) [1969, СССР, боевик, драма, мелодрама, комедия, приключения, военный, Blu ray > DVD5 (Custom)] + Sub Rus,Eng + Original Rus(AC3 5.1;AC3 1.0) reversefile 4.32 GB
Фильмы (HD DVD, Blu-ray и BDRemux) Белое солнце пустыни (Владимир Мотыль) [1969, СССР, боевик, драма, мелодрама, комедия, приключения, военный, Blu-ray disc 1080p] reversefile 20.59 GB
Фильмы (DVD 5/9) Белое солнце пустыни (Владимир Мотыль) [1969, СССР, Боевик, Драма, Мелодрама,Комедия, Приключения, DVD9] + Sub Eng, Rus, Fra, Deu, Esp, Ita, Ned, Port, Ara, Sve, Jap, Chi, Hebr / Original Rus /... TorrentFilm 7.36 GB
Фильмы (HD Rips | 720p, 1080p) Белое солнце пустыни (Владимир Мотыль) [1970, СССР, драма, приключения, боевик, BDRip 720p] reversefile 8.08 GB
Показать сообщения:    

Текущее время: Сегодня 16:36

Часовой пояс: GMT



Вы не можете начинать темы
Вы не можете отвечать на сообщения
Вы не можете редактировать свои сообщения
Вы не можете удалять свои сообщения
Вы не можете голосовать в опросах
Вы не можете прикреплять файлы к сообщениям
Вы не можете скачивать файлы