Мотель / The Bag Man (Дэвид Гровик / David Grovic) [2014, США, триллер, криминал, BDRip] MVO + Sub Rus, eng + Original Eng

 
Автор Сообщение

TorrentFilm ®

Пол:

Стаж: 2 года

Сообщений: 7741



Награды: Нет

Торрент-статистика

Создавать темы 14-Янв-2015 00:00

[Цитировать]

Мотель / The Bag Man
Страна: США
Жанр: триллер, криминал
Год выпуска: 2014
Продолжительность: 01:48:39
Перевод: Профессиональный (многоголосый закадровый)
Cубтитры: русские, английские
Оригинальная аудиодорожка: английский
Режиссер: Дэвид Гровик / David Grovic
В ролях: Роберт Де Ниро, Джон Кьюсак, Ребекка Да Коста, Криспин Гловер, Доминик Пёрселл, Стикки Фингаз, Мартин Клебба, Дэвид Шамбрис, Чезз Менендес, Йен Маклафлин
Описание: Наемный убийца Джек Стаффорд получает несложное задание: приехать в заштатный мотель в 300 милях от Питтсбурга, получить сумку с таинственным содержимым и оставаться в номере, пока за грузом не приедут. Условие одно: ни при каких обстоятельствах не заглядывать внутрь сумки. Но поручение оказывается простым лишь на первый взгляд. Вскоре киллер понимает, что за доверенным ему предметом охотятся коррумпированные агенты ФБР, продажные полицейские, провинциальные гангстеры и кровожадный карлик-цыган из Сербии. И каждый хочет всадить в Джека пулю. Число жертв растет на глазах, и дожить до рассвета смогут далеко не все постояльцы мотеля.
Сэмпл: http://multi-up.com/1026162
Качество видео: BDRip [Blu-Ray Remux (1080p) Кинозал]
Формат видео: AVI
Видео: 720x304 (2.37:1), 23.976 fps, XviD build 73 ~1536 kbps avg, 0.29 bit/pixel
Аудио: 48 kHz, AC3 Dolby Digital, 3/2 (L,C,R,l,r) + LFE ch, ~384 kbps rus
Аудио 2: 48 kHz, AC3 Dolby Digital, 3/2 (L,C,R,l,r) + LFE ch, ~384 kbps eng (отдельно)
Формат субтитров: softsub (SRT)

MediaInfo

Формат : AVI
Формат/Информация : Audio Video Interleave
Размер файла : 1,46 Гбайт
Продолжительность : 1 ч. 48 м.
Общий поток : 1930 Кбит/сек
Программа кодирования : VirtualDubMod 1.5.10.3 | www.virtualdub-fr.org || (build 2550/release)
Библиотека кодирования : VirtualDubMod build 2550/release
Видео
Идентификатор : 0
Формат : MPEG-4 Visual
Профиль формата : Advanced Simple@L5
Параметр BVOP формата : 1
Параметр QPel формата : Нет
Параметр GMC формата : Без точки перехода
Параметр матрицы формата : Выборочная
Идентификатор кодека : XVID
Идентификатор кодека/Подсказка : XviD
Продолжительность : 1 ч. 48 м.
Битрейт : 1537 Кбит/сек
Ширина : 720 пикселей
Высота : 304 пикселя
Соотношение сторон : 2,35:1
Частота кадров : 23,976 кадра/сек
Цветовое пространство : YUV
Субдискретизация насыщенности : 4:2:0
Битовая глубина : 8 бит
Тип развёртки : Прогрессивная
Метод сжатия : С потерями
Бит/(Пиксели*Кадры) : 0.293
Размер потока : 1,17 Гбайт (80%)
Библиотека кодирования : XviD 73
Аудио
Идентификатор : 1
Формат : AC-3
Формат/Информация : Audio Coding 3
Расширение режима : CM (complete main)
Параметр Endianness формата : Big
Идентификатор кодека : 2000
Продолжительность : 1 ч. 48 м.
Вид битрейта : Постоянный
Битрейт : 384 Кбит/сек
Каналы : 6 каналов
Расположение каналов : Front: L C R, Side: L R, LFE
Частота : 48,0 КГц
Битовая глубина : 16 бит
Метод сжатия : С потерями
Размер потока : 298 Мбайт (20%)
Выравнивание : Разделение по промежуткам
Продолжительность промежутка : 42 мс. (1,00 видеокадр)
Время предзагрузки промежутка : 500 мс.

Скриншоты

[Профиль] [ЛС]
Кто просматривает тему:

Форум Тема Автор Размер
Фильмы 2011 года Адский мотель / Motel Hell (Кевин Коннор)[1980, ужасы, комедия, HDTVRip] | P2 sergej644 1.47 GB
Фильмы (HD Rips | 720p, 1080p) Мотель / The Bag Man (Дэвид Гровик / David Grovic) [2013, США, триллер, криминал, BDRemux 1080p] DVO (den904 & DeadSno) + Original (Eng) + Subs (Rus, Eng) reversefile 29.5 GB
Фильмы (HD Rips | 720p, 1080p) Мотель / The Bag Man (Дэвид Гровик / David Grovic) [2013, США, триллер, криминал, BDRip 720p] DVO (den904 & DeadSno) + Original (Eng) + Subs (Rus, Eng) reversefile 5.15 GB
Фильмы 2014 года Мотель / Сумка / The Bag Man (Дэвид Гровик) [2014 г., триллер, криминал, HDRip] BOSS 1.46 GB
Зарубежные сериалы Мотель Бейтс / Bates Motel [S01] (2013) WEB-DLRip 720p. | Первый канал Белочка 12.52 GB
Зарубежные сериалы Мотель Бейтс / Bates Motel [S01] (2013) WEB-DLRip | Первый канал Белочка 6.02 GB
Зарубежные сериалы Мотель Бэйтс / Bates Motel [S04] (2016) WEB-DL 720p | LostFilm достали все 14.61 GB
Фильмы 2014 года Человек с сумкой / Мотель / The Bag Man (Дэвид Гровик / David Grovic) [2014 г., США, Багамы, Триллер, Криминал, HDRip] AVO (Карповский) TorrentFilm 1.46 GB
Показать сообщения:    

Текущее время: Сегодня 08:30

Часовой пояс: GMT



Вы не можете начинать темы
Вы не можете отвечать на сообщения
Вы не можете редактировать свои сообщения
Вы не можете удалять свои сообщения
Вы не можете голосовать в опросах
Вы не можете прикреплять файлы к сообщениям
Вы не можете скачивать файлы