Мост / Bron / Broen / The Bridge [S02] (2013) BDRip 720p от qqss44 | Amedia

 
Автор Сообщение

Белочка ®

Пол:

Стаж: 5 лет 1 месяц

Сообщений: 2089



Награды: 1 (Подробнее)

Girls (Количество: 1)
Торрент-статистика

Создавать темы 10-Дек-2014 19:24

[Цитировать]

-◈ Мост ◈- Информация о фильме:
✦ Название: Мост
✦ Оригинальное название: Bron / Broen / The Bridge
✦ Год выхода: 2013
✦ Жанр: триллер, криминал, детектив
✦ Режиссер: Хенрик Георгссон, Шарлотта Зилинг, Кэтрин Уиндфельд
✦ В ролях: София Хелин, Ким Бодния, Даг Малмберг, Эмиль Бирк Хартманн, Рафаэль Петтерссон, Кристина Бранден, Сара Боберг, Магнус Креппер, Кристиан Лима де Фариа, Магнус Шмитц, Эллен Хиллингсо, Ларс Симонсен, Йорген Торссон, Оле Бойсен и др.

Описание фильма:
На самой середине моста Орезунд, связывающего Швецию с Данией, происходит краткое отключение электроэнергии. Появление света знаменует собой появление незнакомого объекта: тело женщины, обращенное головой к Швеции, ногами к Дании. Чья полиция должна руководить расследованием убийства подброшенной за несколько минут мертвой женщины?

✦ Страна: Швеция, Дания
✦ Продолжительность: ~ 00:57:00 серия
✦ Перевод: профессиональный (многоголосый, закадровый)
| Amedia

Информация о файле:
✦ Кодек: h.264
✦ Формат:MKV
✦ Качество: BDRip 720p
✦ Видео: ~ 6000 kbps, 1280x720
✦ Аудио Rus: AC3, 6 ch, 384 kbps
✦ Аудио Swe: AC3, 6 ch, 640 kbps
✦ Субтитры: Русские (Амедиа)

[color=#0076c2]✔ Релиз[/color]

рип: DON
синхронизация звука (без пересжатия): qqss44
запись звука: BS666
субтитры: Amedia

[color=#0076c2]✔ МедиаИнфо[/color]

Общее
Уникальный идентификатор : 225407461056950603922027964680432814282 (0xA993E5DC5E0721A986392DC8427C88CA)
Формат : Matroska
Версия формата : Version 2
Размер файла : 2,82 Гбайт
Продолжительность : 57 м.
Общий поток : 7026 Кбит/сек
Дата кодирования : UTC 2014-12-10 02:12:15
Программа кодирования : mkvmerge v7.2.0 ('On Every Street') 64bit built on Sep 13 2014 15:52:10
Библиотека кодирования : libebml v1.3.0 + libmatroska v1.4.1
DURATION : 00:56:40.160000000
NUMBER_OF_FRAMES : 868
NUMBER_OF_BYTES : 36962
_STATISTICS_WRITING_APP : mkvmerge v7.2.0 ('On Every Street') 64bit built on Sep 13 2014 15:52:10
_STATISTICS_WRITING_DATE_UTC : 2014-12-10 02:12:15
_STATISTICS_TAGS : BPS DURATION NUMBER_OF_FRAMES NUMBER_OF_BYTES
Видео
Идентификатор : 1
Формат : AVC
Формат/Информация : Advanced Video Codec
Профиль формата : High@L4.1
Параметр CABAC формата : Да
Параметр ReFrames формата : 9 кадров
Идентификатор кодека : V_MPEG4/ISO/AVC
Продолжительность : 57 м.
Битрейт : 6000 Кбит/сек
Ширина : 1280 пикселей
Высота : 720 пикселей
Соотношение сторон : 16:9
Режим частоты кадров : Постоянный
Частота кадров : 25,000 кадров/сек
Цветовое пространство : YUV
Субдискретизация насыщенности : 4:2:0
Битовая глубина : 8 бит
Тип развёртки : Прогрессивная
Бит/(Пиксели*Кадры) : 0.260
Размер потока : 2,35 Гбайт (83%)
Библиотека кодирования : x264 core 142 r2389kMod 956c8d8
Настройки программы : cabac=1 / ref=9 / deblock=1:-3:-3 / analyse=0x3:0x113 / me=umh / subme=11 / psy=1 / fade_compensate=0.00 / psy_rd=1.00:0.00 / mixed_ref=1 / me_range=32 / chroma_me=1 / trellis=2 / 8x8dct=1 / cqm=0 / deadzone=21,11 / fast_pskip=0 / chroma_qp_offset=-3 / threads=12 / lookahead_threads=2 / sliced_threads=0 / nr=0 / decimate=1 / interlaced=0 / bluray_compat=0 / constrained_intra=0 / fgo=0 / bframes=9 / b_pyramid=2 / b_adapt=2 / b_bias=0 / direct=3 / weightb=1 / open_gop=0 / weightp=2 / keyint=250 / keyint_min=25 / scenecut=40 / intra_refresh=0 / rc_lookahead=40 / rc=2pass / mbtree=0 / bitrate=6000 / ratetol=1.0 / qcomp=0.70 / qpmin=0 / qpmax=69 / qpstep=4 / cplxblur=20.0 / qblur=0.5 / vbv_maxrate=50000 / vbv_bufsize=62500 / nal_hrd=none / filler=0 / ip_ratio=1.40 / pb_ratio=1.30 / aq=3:0.80
Язык : Swedish
Default : Да
Forced : Нет
DURATION : 00:57:30.040000000
NUMBER_OF_FRAMES : 86251
NUMBER_OF_BYTES : 2587598039
_STATISTICS_WRITING_APP : mkvmerge v7.2.0 ('On Every Street') 64bit built on Sep 13 2014 15:52:10
_STATISTICS_WRITING_DATE_UTC : 2014-12-10 02:12:15
_STATISTICS_TAGS : BPS DURATION NUMBER_OF_FRAMES NUMBER_OF_BYTES
Аудио #1
Идентификатор : 2
Формат : AC-3
Формат/Информация : Audio Coding 3
Расширение режима : CM (complete main)
Параметр Endianness формата : Big
Идентификатор кодека : A_AC3
Продолжительность : 57 м.
Вид битрейта : Постоянный
Битрейт : 384 Кбит/сек
Каналы : 6 каналов
Расположение каналов : Front: L C R, Side: L R, LFE
Частота : 48,0 КГц
Битовая глубина : 16 бит
Метод сжатия : С потерями
Размер потока : 158 Мбайт (5%)
Язык : Russian
Default : Да
Forced : Нет
Аудио #2
Идентификатор : 3
Формат : AC-3
Формат/Информация : Audio Coding 3
Расширение режима : CM (complete main)
Параметр Endianness формата : Big
Идентификатор кодека : A_AC3
Продолжительность : 57 м.
Вид битрейта : Постоянный
Битрейт : 640 Кбит/сек
Каналы : 6 каналов
Расположение каналов : Front: L C R, Side: L R, LFE
Частота : 48,0 КГц
Битовая глубина : 16 бит
Метод сжатия : С потерями
Размер потока : 263 Мбайт (9%)
Язык : Swedish
Default : Нет
Forced : Нет
Текст
Идентификатор : 4
Формат : UTF-8
Идентификатор кодека : S_TEXT/UTF8
Идентификатор кодека/Информация : UTF-8 Plain Text
Язык : Russian
Default : Нет
Forced : Нет
Меню
00:00:00.000 : en:00:00:00.000
00:03:38.320 : en:00:03:38.320
00:10:01.480 : en:00:10:01.480
00:21:14.680 : en:00:21:14.680
00:29:26.600 : en:00:29:26.600
00:39:37.280 : en:00:39:37.280
00:50:23.360 : en:00:50:23.360

[color=#0076c2]✔ Скриншоты[/color]

[Профиль] [ЛС]
Показать сообщения:    

Текущее время: Сегодня 14:50

Часовой пояс: GMT



Вы не можете начинать темы
Вы не можете отвечать на сообщения
Вы не можете редактировать свои сообщения
Вы не можете удалять свои сообщения
Вы не можете голосовать в опросах
Вы не можете прикреплять файлы к сообщениям
Вы не можете скачивать файлы