Москитная сетка / Сетка от комаров / La mosquitera / The Mosquito Net (Агусти Вила / Agustí Vila) [2010, Испания, Драма, DVDRip] VO

 
Автор Сообщение

TorrentFilm ®

Пол:

Стаж: 1 год 11 месяцев

Сообщений: 7741



Награды: Нет

Торрент-статистика

Создавать темы 18-Фев-2016 00:08

[Цитировать]

Москитная сетка / La mosquitera
Страна: Испания
Жанр: Драма
Год выпуска: 2010
Продолжительность: 01:34:54
Перевод: Одноголосый закадровый (Валерий Феодосов)
Cубтитры: нет
Режиссер: Агусти Вила / Agustí Vila
В ролях: Мартина Гарсия, Эмма Суарес, Эдуард Фернандес, Алехандро Батллори, Ферми Рейксач, Анна Икобалзета, Дэвид Верт, Джозеп Жюльен, Джеральдин Чаплин
Описание: На афише «Москитной сетки» изображены главные герои на фоне целого зоопарка: тут и собаки, и кошки, и птицы. Есть в фильме и кабан, которого едущие в машине любовники сбивают на дороге, а чтобы облегчить его страдания, переезжают еще дважды. Многое здесь происходит из лучших гуманистических побуждений, но по закону подлости оборачивается жестокостью, распадом, бредом. Глава семейства и его супруга попадают в сети нелепых любовных связей, их юный сын, покупая для умирающих животных обезболивающие лекарства, сам кончает наркоманией, а его дед и бабка безуспешно пытаются отравиться газом.
Доп. информация: Озвучка выполнена по русским субтитрам - sonnyb
Использованный релиз:http://torrentfilm.net/forum/viewtopic.php?t=3594750
Сэмпл: http://sendfile.su/1204059
Качество видео: DVDRip
Формат видео: AVI
Видео: 720x384 (1.88:1), 25 fps, XviD MPEG-4 ~1600 kbps avg, 0.23 bit/pixel
Аудио: 48 kHz, MPEG Layer 3, 2 ch, ~192.00 kbps avg

MediaInfo

Format : AVI
Format/Info : Audio Video Interleave
File size : 1.20 GiB
Duration : 1h 34mn
Overall bit rate : 1 803 Kbps
Writing application : VirtualDubMod 1.5.10.2 (build 2540/release)
Writing library : VirtualDub build 35486/release
Video #0
ID : 0
Format : MPEG-4 Visual
Format profile : Advanced Simple@L5
Format settings, BVOP : 2
Format settings, QPel : No
Format settings, GMC : No warppoints
Format settings, Matrix : Default (H.263)
Muxing mode : Packed bitstream
Codec ID : XVID
Codec ID/Hint : XviD
Duration : 1h 34mn
Bit rate : 1 601 Kbps
Width : 720 pixels
Height : 384 pixels
Display aspect ratio : 1.85:1
Frame rate : 25.000 fps
Color space : YUV
Chroma subsampling : 4:2:0
Bit depth : 8 bits
Scan type : Progressive
Compression mode : Lossy
Bits/(Pixel*Frame) : 0.232
Stream size : 1.06 GiB (89%)
Writing library : XviD 1.2.1 (UTC 2008-12-04)
Audio #1
ID : 1
Format : MPEG Audio
Format version : Version 1
Format profile : Layer 3
Mode : Joint stereo
Codec ID : 55
Codec ID/Hint : MP3
Duration : 1h 34mn
Bit rate mode : Constant
Bit rate : 192 Kbps
Channel(s) : 2 channels
Sampling rate : 48.0 KHz
Compression mode : Lossy
Stream size : 130 MiB (11%)
Alignment : Split accross interleaves
Interleave, duration : 40 ms (1.00 video frame)
Interleave, preload duration : 500 ms

Скриншот c названием фильма

Скриншоты

[Профиль] [ЛС]

Создавать темы 12-Июн-2016 07:53 (спустя 3 месяца 23 дня)

Топик был перенесен из форума Фильмы 2011 года в форум Фильмы 2010 года
Russian Mafia
 
Кто просматривает тему:

Показать сообщения:    

Текущее время: Сегодня 20:03

Часовой пояс: GMT



Вы не можете начинать темы
Вы не можете отвечать на сообщения
Вы не можете редактировать свои сообщения
Вы не можете удалять свои сообщения
Вы не можете голосовать в опросах
Вы не можете прикреплять файлы к сообщениям
Вы не можете скачивать файлы