Москва слезам не верит (Владимир Меньшов) [1979, СССР, драма, мелодрама, комедия, Blu-ray disc 1080p]

 
Автор Сообщение

TorrentFilm ®

Пол:

Стаж: 2 года

Сообщений: 7741



Награды: Нет

Торрент-статистика

Создавать темы 01-Янв-2016 00:05

[Цитировать]

Москва слезам не верит--Страна: СССР
Жанр: драма, мелодрама, комедия
Год выпуска: 1979
Продолжительность: 02:28:17--Перевод: Оригинал--Режиссер:
Владимир Меньшов
В ролях:
Вера Алентова (Екатерина Александровна Тихомирова (Катя)), Ирина Муравьёва (Людмила Свиридова (Люда)), Алексей Баталов (Георгий Иванович (Гоша,Гога), заводской слесарь, возлюбленный Катерины), Раиса Рязанова (Антонина Буянова (Тося,Тоня)), Александр Фатюшин (Сергей Гурин, известный хоккеист, муж Людмилы), Борис Сморчков (Николай, рабочий на стройке, муж Антонины), Виктор Уральский (отец Николая), Валентина Ушакова (мама Николая), Юрий Васильев (Рудольф (Родион) Петрович Рачков, телеоператор из Останкино, отец ребенка Катерины), Евгения Ханаева (мама Рачкова), Зоя Фёдорова (тётя Паша, вахтерша), Наталья Вавилова (Александра Александровна Тихомирова (Сашка), дочь Катерины и Рачкова)--Описание:Москва пятидесятых годов. Три молодые провинциалки приезжают в Москву в поисках того, что ищут люди во всех столицах мира - любви, счастья и достатка. Их судьбы складываются именно так, как предполагает характер каждой из девушек.
Антонина выходит замуж, растит детей, любит мужа. Людмиле Москва представляется лотереей, в которой она должна выиграть свое особенное счастье. Катерина же - отчаянно влюбляется, но избранник ее оставляет. Однако она не опускает руки, в одиночку растит дочь и к тому же успевает сделать блестящую карьеру. В сорок лет судьба дарит ей встречу с прекрасным человеком и настоящую любовь...
--
kinopoisk-
-Тип релиза: Blu-ray 1080p
Контейнер: BDMV
Video: MPEG-4 AVC Video / 20002 kbps / 1080p / 23,976 fps / 16:9 / High Profile 4.1
Audio: Russian / DTS-HD Master Audio / 5.1 / 48 kHz / 3349 kbps / 24-bit (DTS Core: 5.1 / 48 kHz / 1509 kbps / 24-bit)
Audio: Russian / Dolby Digital Audio / 5.1 / 48 kHz / 448 kbps
Audio: Russian / LPCM Audio / 1.0 / 48 kHz / 1152 kbps / 24-bitрелиз от:
------------
Раздача от:

На диске

Владимир Меньшов о фильме.

Скриншоты


Дополнительно

Полная реставрация изображения и звука. Исходные киноматериалы подготовлены Госфильмофондом России. Покадровая цифровая реставрация изображения, ремастеринг звука и авторинг проведены объединением «Крупный план».

BDinfo

Disc Title: MOSCOW_NOT_BELIEVE_IN_TEARS_HDCLUB
Disc Size: 34 951 562 986 bytes
Protection: AACS
BD-Java: No
BDInfo: 0.5.2
Notes:
BDINFO HOME AND REPORTS SUBMISSION:
Cinema Squid
http://www.cinemasquid.com/Tools.aspx
INCLUDES FORUMS REPORT FOR:
Unofficial Blu-ray Audio and Video Specifications Thread
http://www.avsforum.com/avs-vb/showthread.php?t=760714
http://forum.blu-ray.com/showthread.php?t=3338
********************
PLAYLIST: 00010.MPLS
********************
Total   Video
Title                                                           Codec   Length  Movie Size      Disc Size       Bitrate Bitrate Main Audio Track                          Secondary Audio Track
-----                                                           ------  ------- --------------  --------------  ------- ------- ------------------                        ---------------------
00010.MPLS                                                      AVC     2:28:17 30 712 707 072  34 951 562 986  27,61   20,00   DTS-HD Master 5.1 3349Kbps (48kHz/24-bit) DD AC3 5.1 448Kbps
DISC INFO:
Disc Title:     MOSCOW_NOT_BELIEVE_IN_TEARS_HDCLUB
Disc Size:      34 951 562 986 bytes
Protection:     AACS
BD-Java:        No
BDInfo:         0.5.2
PLAYLIST REPORT:
Name:                   00010.MPLS
Size:                   30 712 707 072 bytes
Length:                 2:28:17 (h:m:s)
Total Bitrate:          27,61 Mbps
Description:
VIDEO:
Codec                   Bitrate             Description
-----                   -------             -----------
MPEG-4 AVC Video        20002 kbps          1080p / 23,976 fps / 16:9 / High Profile 4.1
AUDIO:
Codec                           Language        Bitrate         Description
-----                           --------        -------         -----------
DTS-HD Master Audio             Russian         3349 kbps       5.1 / 48 kHz / 3349 kbps / 24-bit (DTS Core: 5.1 / 48 kHz / 1509 kbps / 24-bit)
Dolby Digital Audio             Russian         448 kbps        5.1 / 48 kHz / 448 kbps
LPCM Audio                      Russian         1152 kbps       1.0 / 48 kHz / 1152 kbps / 24-bit
FILES:
Name            Time In         Length          Size            Total Bitrate
----            -------         ------          ----            -------------
00014.M2TS      0:00:00.000     1:06:50.631     13 844 226 048  27 615
00015.M2TS      1:06:50.631     1:21:26.923     16 868 481 024  27 614
CHAPTERS:
Number          Time In         Length          Avg Video Rate  Max 1-Sec Rate  Max 1-Sec Time  Max 5-Sec Rate  Max 5-Sec Time  Max 10Sec Rate  Max 10Sec Time  Avg Frame Size  Max Frame Size  Max Frame Time
------          -------         ------          --------------  --------------  --------------  --------------  --------------  --------------  --------------  --------------  --------------  --------------
1               0:00:00.000     0:04:00.406     19 128 kbps     40 104 kbps     00:00:17.976    29 213 kbps     00:03:08.938    26 882 kbps     00:03:09.480    99 707 bytes    434 016 bytes   00:00:18.351
2               0:04:00.406     0:04:26.849     20 310 kbps     25 936 kbps     00:04:14.671    24 172 kbps     00:07:03.798    23 654 kbps     00:06:58.793    105 885 bytes   333 742 bytes   00:07:08.719
3               0:08:27.256     0:01:17.660     18 994 kbps     30 627 kbps     00:09:00.998    25 230 kbps     00:08:44.774    23 899 kbps     00:08:42.480    99 026 bytes    267 073 bytes   00:09:43.833
4               0:09:44.917     0:03:12.150     20 824 kbps     33 371 kbps     00:10:07.815    29 010 kbps     00:10:04.603    27 368 kbps     00:09:59.807    108 565 bytes   456 371 bytes   00:10:58.824
5               0:12:57.067     0:02:20.849     20 762 kbps     25 928 kbps     00:13:12.458    23 570 kbps     00:13:12.041    21 874 kbps     00:13:09.413    108 243 bytes   258 860 bytes   00:12:58.068
6               0:15:17.917     0:07:36.456     21 114 kbps     27 154 kbps     00:21:14.690    25 143 kbps     00:19:09.815    24 373 kbps     00:19:04.810    110 077 bytes   423 762 bytes   00:16:35.953
7               0:22:54.373     0:03:57.570     21 299 kbps     27 004 kbps     00:23:38.208    25 858 kbps     00:23:37.374    25 221 kbps     00:23:32.869    111 045 bytes   337 983 bytes   00:23:37.833
8               0:26:51.943     0:03:06.394     21 074 kbps     26 610 kbps     00:28:05.266    25 231 kbps     00:28:04.683    24 414 kbps     00:28:00.678    109 868 bytes   347 958 bytes   00:28:07.686
9               0:29:58.338     0:05:54.062     21 287 kbps     31 463 kbps     00:30:29.619    27 817 kbps     00:30:17.982    25 684 kbps     00:30:16.314    110 979 bytes   327 821 bytes   00:32:05.715
10              0:35:52.400     0:06:49.075     20 831 kbps     26 379 kbps     00:38:55.249    23 258 kbps     00:40:23.504    22 500 kbps     00:38:53.122    108 603 bytes   312 420 bytes   00:38:54.749
11              0:42:41.475     0:03:21.868     20 132 kbps     29 850 kbps     00:43:55.549    27 950 kbps     00:43:54.381    25 808 kbps     00:43:52.379    104 959 bytes   315 709 bytes   00:43:21.515
12              0:46:03.343     0:02:32.735     22 308 kbps     32 383 kbps     00:48:12.556    26 724 kbps     00:48:11.179    24 943 kbps     00:48:06.300    116 305 bytes   342 142 bytes   00:48:07.801
13              0:48:36.079     0:06:37.271     16 961 kbps     27 872 kbps     00:53:09.269    23 307 kbps     00:48:46.673    22 417 kbps     00:53:08.977    88 426 bytes    378 476 bytes   00:55:10.390
14              0:55:13.351     0:05:59.650     19 894 kbps     33 526 kbps     00:55:54.851    28 735 kbps     01:00:13.776    27 537 kbps     00:55:54.392    103 716 bytes   416 731 bytes   00:57:43.376
15              1:01:13.002     0:03:16.529     19 230 kbps     27 380 kbps     01:02:31.289    22 319 kbps     01:02:44.844    22 128 kbps     01:02:42.925    100 254 bytes   333 364 bytes   01:01:26.557
16              1:04:29.532     0:02:21.099     13 981 kbps     26 548 kbps     01:05:55.534    21 853 kbps     01:05:53.991    20 345 kbps     01:05:48.027    72 891 bytes    294 316 bytes   01:04:49.760
17              1:06:50.631     0:07:03.714     21 150 kbps     37 359 kbps     01:07:37.970    27 262 kbps     01:07:58.449    24 391 kbps     01:07:55.362    110 266 bytes   403 345 bytes   01:13:47.089
18              1:13:54.346     0:00:44.002     17 931 kbps     29 192 kbps     01:13:59.476    21 963 kbps     01:13:57.099    19 351 kbps     01:14:28.338    93 485 bytes    305 481 bytes   01:14:00.936
19              1:14:38.348     0:02:34.237     21 189 kbps     28 900 kbps     01:14:41.560    26 694 kbps     01:15:44.248    26 030 kbps     01:15:38.992    110 470 bytes   350 615 bytes   01:15:39.493
20              1:17:12.586     0:03:58.488     18 937 kbps     29 010 kbps     01:20:48.176    24 267 kbps     01:19:16.334    22 549 kbps     01:20:05.509    98 727 bytes    313 387 bytes   01:19:46.490
21              1:21:11.074     0:07:22.900     18 415 kbps     35 746 kbps     01:25:09.813    28 512 kbps     01:25:08.645    25 984 kbps     01:27:00.173    96 009 bytes    433 181 bytes   01:28:33.975
22              1:28:33.975     0:06:48.950     20 282 kbps     29 590 kbps     01:28:37.103    25 697 kbps     01:28:34.225    23 216 kbps     01:28:34.684    105 741 bytes   461 549 bytes   01:28:34.976
23              1:35:22.925     0:05:12.812     21 363 kbps     31 806 kbps     01:35:31.934    27 439 kbps     01:35:29.807    26 549 kbps     01:35:31.434    111 375 bytes   357 721 bytes   01:39:49.400
24              1:40:35.738     0:05:55.146     20 198 kbps     34 048 kbps     01:46:24.211    29 147 kbps     01:42:21.885    25 272 kbps     01:42:18.257    105 305 bytes   298 218 bytes   01:40:36.739
25              1:46:30.884     0:08:10.114     19 453 kbps     31 414 kbps     01:52:01.965    26 493 kbps     01:46:38.850    26 030 kbps     01:46:33.261    101 418 bytes   488 243 bytes   01:47:18.515
26              1:54:40.999     0:02:39.617     21 867 kbps     36 736 kbps     01:55:02.228    27 156 kbps     01:54:58.391    26 014 kbps     01:54:53.386    114 004 bytes   315 511 bytes   01:55:02.854
27              1:57:20.616     0:03:39.135     21 448 kbps     26 229 kbps     02:00:00.985    23 801 kbps     01:59:35.918    23 037 kbps     01:59:31.080    111 821 bytes   271 903 bytes   02:00:01.861
28              2:00:59.752     0:03:17.655     20 737 kbps     26 831 kbps     02:01:55.558    23 304 kbps     02:01:51.637    22 630 kbps     02:01:48.634    108 116 bytes   341 093 bytes   02:01:55.599
29              2:04:17.408     0:06:38.398     20 778 kbps     26 275 kbps     02:09:22.588    24 715 kbps     02:07:59.963    23 740 kbps     02:07:56.960    108 327 bytes   279 841 bytes   02:10:52.803
30              2:10:55.806     0:07:37.790     19 852 kbps     40 848 kbps     02:17:47.467    28 200 kbps     02:17:45.632    25 869 kbps     02:13:26.581    103 497 bytes   481 094 bytes   02:17:49.219
31              2:18:33.596     0:03:32.295     21 109 kbps     34 514 kbps     02:19:09.841    27 025 kbps     02:21:12.630    25 529 kbps     02:21:11.629    110 055 bytes   321 773 bytes   02:21:17.510
32              2:22:05.892     0:06:11.662     16 773 kbps     42 134 kbps     02:22:42.470    30 521 kbps     02:25:03.569    27 154 kbps     02:25:03.569    87 459 bytes    394 005 bytes   02:22:43.346
STREAM DIAGNOSTICS:
File            PID             Type            Codec           Language                Seconds                 Bitrate                 Bytes           Packets
----            ---             ----            -----           --------                --------------          --------------          -------------   -----
00014.M2TS      4113 (0x1011)   0x1B            AVC                                     4010,548                20 001                  10 027 119 077  54 551 311
00014.M2TS      4352 (0x1100)   0x86            DTS-HD MA       rus (Russian)           4010,548                3 349                   1 679 127 052   9 749 280
00014.M2TS      4353 (0x1101)   0x81            AC3             rus (Russian)           4010,548                448                     224 596 736     1 253 330
00014.M2TS      4354 (0x1102)   0x80            LPCM            rus (Russian)           4010,548                2 310                   1 158 271 388   6 417 016
00015.M2TS      4113 (0x1011)   0x1B            AVC                                     4886,799                20 002                  12 218 438 118  66 473 008
00015.M2TS      4352 (0x1100)   0x86            DTS-HD MA       rus (Russian)           4886,799                3 349                   2 045 453 824   11 873 666
00015.M2TS      4353 (0x1101)   0x81            AC3             rus (Russian)           4886,799                448                     273 668 864     1 527 170
00015.M2TS      4354 (0x1102)   0x80            LPCM            rus (Russian)           4886,799                2 310                   1 411 343 940   7 819 080
QUICK SUMMARY:
Disc Title: MOSCOW_NOT_BELIEVE_IN_TEARS_HDCLUB
Disc Size: 34 951 562 986 bytes
Protection: AACS
BD-Java: No
Playlist: 00010.MPLS
Size: 30 712 707 072 bytes
Length: 2:28:17
Total Bitrate: 27,61 Mbps
Video: MPEG-4 AVC Video / 20002 kbps / 1080p / 23,976 fps / 16:9 / High Profile 4.1
Audio: Russian / DTS-HD Master Audio / 5.1 / 48 kHz / 3349 kbps / 24-bit (DTS Core: 5.1 / 48 kHz / 1509 kbps / 24-bit)
Audio: Russian / Dolby Digital Audio / 5.1 / 48 kHz / 448 kbps
Audio: Russian / LPCM Audio / 1.0 / 48 kHz / 1152 kbps / 24-bit
********************
PLAYLIST: 00002.MPLS
********************
Total   Video
Title                                                           Codec   Length  Movie Size      Disc Size       Bitrate Bitrate Main Audio Track                          Secondary Audio Track
-----                                                           ------  ------- --------------  --------------  ------- ------- ------------------                        ---------------------
00002.MPLS                                                      MPEG-2  0:14:44 1 655 316 480   34 951 562 986  14,98   8,99    LPCM 2.0 1536Kbps (48kHz/16-bit)          LPCM 2.0 1536Kbps (48kHz/16-bit)
DISC INFO:
Disc Title:     MOSCOW_NOT_BELIEVE_IN_TEARS_HDCLUB
Disc Size:      34 951 562 986 bytes
Protection:     AACS
BD-Java:        No
BDInfo:         0.5.2
PLAYLIST REPORT:
Name:                   00002.MPLS
Size:                   1 655 316 480 bytes
Length:                 0:14:44 (h:m:s)
Total Bitrate:          14,98 Mbps
Description:
VIDEO:
Codec                   Bitrate             Description
-----                   -------             -----------
MPEG-2 Video            8985 kbps           576i / 25 fps / 16:9
AUDIO:
Codec                           Language        Bitrate         Description
-----                           --------        -------         -----------
LPCM Audio                      Russian         1536 kbps       2.0 / 48 kHz / 1536 kbps / 16-bit
LPCM Audio                      Russian         1536 kbps       2.0 / 48 kHz / 1536 kbps / 16-bit
LPCM Audio                      Russian         1536 kbps       2.0 / 48 kHz / 1536 kbps / 16-bit
FILES:
Name            Time In         Length          Size            Total Bitrate
----            -------         ------          ----            -------------
00004.M2TS      0:00:00.000     0:14:44.040     1 655 316 480   14 980
CHAPTERS:
Number          Time In         Length          Avg Video Rate  Max 1-Sec Rate  Max 1-Sec Time  Max 5-Sec Rate  Max 5-Sec Time  Max 10Sec Rate  Max 10Sec Time  Avg Frame Size  Max Frame Size  Max Frame Time
------          -------         ------          --------------  --------------  --------------  --------------  --------------  --------------  --------------  --------------  --------------  --------------
1               0:00:00.000     0:01:39.919     8 930 kbps      10 031 kbps     00:00:50.360    9 208 kbps      00:00:46.480    9 098 kbps      00:00:45.519    44 634 bytes    102 144 bytes   00:00:03.840
2               0:01:39.919     0:01:39.840     9 000 kbps      10 171 kbps     00:02:06.679    9 240 kbps      00:02:03.279    9 116 kbps      00:02:03.160    45 000 bytes    105 073 bytes   00:02:07.200
3               0:03:19.760     0:01:39.840     9 000 kbps      9 932 kbps      00:04:04.760    9 180 kbps      00:04:04.720    9 086 kbps      00:04:01.840    45 000 bytes    102 144 bytes   00:03:48.480
4               0:04:59.600     0:01:40.319     9 000 kbps      9 586 kbps      00:05:09.559    9 101 kbps      00:05:14.240    9 047 kbps      00:05:09.520    45 000 bytes    93 242 bytes    00:05:06.240
5               0:06:39.919     0:01:39.840     8 999 kbps      9 728 kbps      00:08:06.680    9 135 kbps      00:08:07.119    9 056 kbps      00:08:07.120    44 993 bytes    102 144 bytes   00:08:07.440
6               0:08:19.760     0:01:39.839     9 001 kbps      9 751 kbps      00:09:31.640    9 149 kbps      00:09:37.359    9 071 kbps      00:09:36.400    45 005 bytes    102 144 bytes   00:09:20.160
7               0:09:59.599     0:01:40.320     9 000 kbps      10 298 kbps     00:10:46.280    9 257 kbps      00:10:46.000    9 131 kbps      00:10:46.240    45 001 bytes    118 809 bytes   00:10:46.319
8               0:11:39.920     0:01:39.839     9 000 kbps      9 395 kbps      00:12:35.000    9 068 kbps      00:12:34.960    9 028 kbps      00:12:34.960    45 001 bytes    85 114 bytes    00:11:51.599
9               0:13:19.760     0:01:24.279     8 929 kbps      10 118 kbps     00:14:32.600    9 150 kbps      00:14:29.200    9 055 kbps      00:14:23.440    44 667 bytes    102 144 bytes   00:14:19.200
STREAM DIAGNOSTICS:
File            PID             Type            Codec           Language                Seconds                 Bitrate                 Bytes           Packets
----            ---             ----            -----           --------                --------------          --------------          -------------   -----
00004.M2TS      4113 (0x1011)   0x02            MPEG-2                                  883,920                 8 987                   992 929 893     5 409 245
00004.M2TS      4352 (0x1100)   0x80            LPCM            rus (Russian)           883,920                 1 543                   170 442 912     1 060 848
00004.M2TS      4353 (0x1101)   0x80            LPCM            rus (Russian)           883,920                 1 543                   170 442 912     1 060 848
00004.M2TS      4354 (0x1102)   0x80            LPCM            rus (Russian)           883,920                 1 543                   170 442 912     1 060 848
QUICK SUMMARY:
Disc Title: MOSCOW_NOT_BELIEVE_IN_TEARS_HDCLUB
Disc Size: 34 951 562 986 bytes
Protection: AACS
BD-Java: No
Playlist: 00002.MPLS
Size: 1 655 316 480 bytes
Length: 0:14:44
Total Bitrate: 14,98 Mbps
Video: MPEG-2 Video / 8985 kbps / 576i / 25 fps / 16:9
Audio: Russian / LPCM Audio / 2.0 / 48 kHz / 1536 kbps / 16-bit
Audio: Russian / LPCM Audio / 2.0 / 48 kHz / 1536 kbps / 16-bit
Audio: Russian / LPCM Audio / 2.0 / 48 kHz / 1536 kbps / 16-bit
********************
PLAYLIST: 00004.MPLS
********************
Total   Video
Title                                                           Codec   Length  Movie Size      Disc Size       Bitrate Bitrate Main Audio Track                          Secondary Audio Track
-----                                                           ------  ------- --------------  --------------  ------- ------- ------------------                        ---------------------
00004.MPLS                                                      MPEG-2  0:01:30 381 603 840     34 951 562 986  33,89   27,11   LPCM 2.0 1536Kbps (48kHz/16-bit)          LPCM 2.0 1536Kbps (48kHz/16-bit)
DISC INFO:
Disc Title:     MOSCOW_NOT_BELIEVE_IN_TEARS_HDCLUB
Disc Size:      34 951 562 986 bytes
Protection:     AACS
BD-Java:        No
BDInfo:         0.5.2
PLAYLIST REPORT:
Name:                   00004.MPLS
Size:                   381 603 840 bytes
Length:                 0:01:30 (h:m:s)
Total Bitrate:          33,89 Mbps
Description:
VIDEO:
Codec                   Bitrate             Description
-----                   -------             -----------
MPEG-2 Video            27109 kbps          1080p / 23,976 fps / 16:9
AUDIO:
Codec                           Language        Bitrate         Description
-----                           --------        -------         -----------
LPCM Audio                      Russian         1536 kbps       2.0 / 48 kHz / 1536 kbps / 16-bit
LPCM Audio                      Russian         1536 kbps       2.0 / 48 kHz / 1536 kbps / 16-bit
LPCM Audio                      Russian         1536 kbps       2.0 / 48 kHz / 1536 kbps / 16-bit
FILES:
Name            Time In         Length          Size            Total Bitrate
----            -------         ------          ----            -------------
00008.M2TS      0:00:00.000     0:01:30.090     381 603 840     33 886
CHAPTERS:
Number          Time In         Length          Avg Video Rate  Max 1-Sec Rate  Max 1-Sec Time  Max 5-Sec Rate  Max 5-Sec Time  Max 10Sec Rate  Max 10Sec Time  Avg Frame Size  Max Frame Size  Max Frame Time
------          -------         ------          --------------  --------------  --------------  --------------  --------------  --------------  --------------  --------------  --------------  --------------
1               0:00:00.000     0:01:30.090     27 109 kbps     32 275 kbps     00:00:05.296    29 234 kbps     00:00:14.848    29 033 kbps     00:00:13.847    141 336 bytes   655 004 bytes   00:00:20.603
STREAM DIAGNOSTICS:
File            PID             Type            Codec           Language                Seconds                 Bitrate                 Bytes           Packets
----            ---             ----            -----           --------                --------------          --------------          -------------   -----
00008.M2TS      4113 (0x1011)   0x02            MPEG-2                                  90,007                  27 135                  305 285 931     1 660 430
00008.M2TS      4352 (0x1100)   0x80            LPCM            rus (Russian)           90,007                  1 542                   17 353 928      108 012
00008.M2TS      4353 (0x1101)   0x80            LPCM            rus (Russian)           90,007                  1 542                   17 353 928      108 012
00008.M2TS      4354 (0x1102)   0x80            LPCM            rus (Russian)           90,007                  1 542                   17 353 928      108 012
QUICK SUMMARY:
Disc Title: MOSCOW_NOT_BELIEVE_IN_TEARS_HDCLUB
Disc Size: 34 951 562 986 bytes
Protection: AACS
BD-Java: No
Playlist: 00004.MPLS
Size: 381 603 840 bytes
Length: 0:01:30
Total Bitrate: 33,89 Mbps
Video: MPEG-2 Video / 27109 kbps / 1080p / 23,976 fps / 16:9
Audio: Russian / LPCM Audio / 2.0 / 48 kHz / 1536 kbps / 16-bit
Audio: Russian / LPCM Audio / 2.0 / 48 kHz / 1536 kbps / 16-bit
Audio: Russian / LPCM Audio / 2.0 / 48 kHz / 1536 kbps / 16-bit
********************
PLAYLIST: 00005.MPLS
********************
Total   Video
Title                                                           Codec   Length  Movie Size      Disc Size       Bitrate Bitrate Main Audio Track                          Secondary Audio Track
-----                                                           ------  ------- --------------  --------------  ------- ------- ------------------                        ---------------------
00005.MPLS                                                      MPEG-2  0:01:30 388 521 984     34 951 562 986  34,50   27,70   LPCM 2.0 1536Kbps (48kHz/16-bit)          LPCM 2.0 1536Kbps (48kHz/16-bit)
DISC INFO:
Disc Title:     MOSCOW_NOT_BELIEVE_IN_TEARS_HDCLUB
Disc Size:      34 951 562 986 bytes
Protection:     AACS
BD-Java:        No
BDInfo:         0.5.2
PLAYLIST REPORT:
Name:                   00005.MPLS
Size:                   388 521 984 bytes
Length:                 0:01:30 (h:m:s)
Total Bitrate:          34,50 Mbps
Description:
VIDEO:
Codec                   Bitrate             Description
-----                   -------             -----------
MPEG-2 Video            27698 kbps          1080p / 23,976 fps / 16:9
AUDIO:
Codec                           Language        Bitrate         Description
-----                           --------        -------         -----------
LPCM Audio                      Russian         1536 kbps       2.0 / 48 kHz / 1536 kbps / 16-bit
LPCM Audio                      Russian         1536 kbps       2.0 / 48 kHz / 1536 kbps / 16-bit
LPCM Audio                      Russian         1536 kbps       2.0 / 48 kHz / 1536 kbps / 16-bit
FILES:
Name            Time In         Length          Size            Total Bitrate
----            -------         ------          ----            -------------
00009.M2TS      0:00:00.000     0:01:30.090     388 521 984     34 501
CHAPTERS:
Number          Time In         Length          Avg Video Rate  Max 1-Sec Rate  Max 1-Sec Time  Max 5-Sec Rate  Max 5-Sec Time  Max 10Sec Rate  Max 10Sec Time  Avg Frame Size  Max Frame Size  Max Frame Time
------          -------         ------          --------------  --------------  --------------  --------------  --------------  --------------  --------------  --------------  --------------  --------------
1               0:00:00.000     0:01:30.090     27 698 kbps     31 801 kbps     00:01:28.755    28 945 kbps     00:00:59.893    28 826 kbps     00:00:55.138    144 405 bytes   638 371 bytes   00:00:17.475
STREAM DIAGNOSTICS:
File            PID             Type            Codec           Language                Seconds                 Bitrate                 Bytes           Packets
----            ---             ----            -----           --------                --------------          --------------          -------------   -----
00009.M2TS      4113 (0x1011)   0x02            MPEG-2                                  90,007                  27 724                  311 915 100     1 696 454
00009.M2TS      4352 (0x1100)   0x80            LPCM            rus (Russian)           90,007                  1 542                   17 353 928      108 012
00009.M2TS      4353 (0x1101)   0x80            LPCM            rus (Russian)           90,007                  1 542                   17 353 928      108 012
00009.M2TS      4354 (0x1102)   0x80            LPCM            rus (Russian)           90,007                  1 542                   17 353 928      108 012
QUICK SUMMARY:
Disc Title: MOSCOW_NOT_BELIEVE_IN_TEARS_HDCLUB
Disc Size: 34 951 562 986 bytes
Protection: AACS
BD-Java: No
Playlist: 00005.MPLS
Size: 388 521 984 bytes
Length: 0:01:30
Total Bitrate: 34,50 Mbps
Video: MPEG-2 Video / 27698 kbps / 1080p / 23,976 fps / 16:9
Audio: Russian / LPCM Audio / 2.0 / 48 kHz / 1536 kbps / 16-bit
Audio: Russian / LPCM Audio / 2.0 / 48 kHz / 1536 kbps / 16-bit
Audio: Russian / LPCM Audio / 2.0 / 48 kHz / 1536 kbps / 16-bit
********************
PLAYLIST: 00007.MPLS
********************
Total   Video
Title                                                           Codec   Length  Movie Size      Disc Size       Bitrate Bitrate Main Audio Track                          Secondary Audio Track
-----                                                           ------  ------- --------------  --------------  ------- ------- ------------------                        ---------------------
00007.MPLS                                                      MPEG-2  0:01:20 341 753 856     34 951 562 986  34,09   26,64   LPCM 2.0 1536Kbps (48kHz/16-bit)          LPCM 2.0 1536Kbps (48kHz/16-bit)
DISC INFO:
Disc Title:     MOSCOW_NOT_BELIEVE_IN_TEARS_HDCLUB
Disc Size:      34 951 562 986 bytes
Protection:     AACS
BD-Java:        No
BDInfo:         0.5.2
PLAYLIST REPORT:
Name:                   00007.MPLS
Size:                   341 753 856 bytes
Length:                 0:01:20 (h:m:s)
Total Bitrate:          34,09 Mbps
Description:
VIDEO:
Codec                   Bitrate             Description
-----                   -------             -----------
MPEG-2 Video            26644 kbps          1080p / 23,976 fps / 16:9
AUDIO:
Codec                           Language        Bitrate         Description
-----                           --------        -------         -----------
LPCM Audio                      Russian         1536 kbps       2.0 / 48 kHz / 1536 kbps / 16-bit
LPCM Audio                      Russian         1536 kbps       2.0 / 48 kHz / 1536 kbps / 16-bit
LPCM Audio                      Russian         1536 kbps       2.0 / 48 kHz / 1536 kbps / 16-bit
FILES:
Name            Time In         Length          Size            Total Bitrate
----            -------         ------          ----            -------------
00011.M2TS      0:00:00.000     0:01:20.205     341 753 856     34 088
CHAPTERS:
Number          Time In         Length          Avg Video Rate  Max 1-Sec Rate  Max 1-Sec Time  Max 5-Sec Rate  Max 5-Sec Time  Max 10Sec Rate  Max 10Sec Time  Avg Frame Size  Max Frame Size  Max Frame Time
------          -------         ------          --------------  --------------  --------------  --------------  --------------  --------------  --------------  --------------  --------------  --------------
1               0:00:00.000     0:01:20.205     26 645 kbps     32 179 kbps     00:01:18.119    27 999 kbps     00:00:59.893    27 829 kbps     00:00:55.138    138 912 bytes   619 405 bytes   00:00:13.722
STREAM DIAGNOSTICS:
File            PID             Type            Codec           Language                Seconds                 Bitrate                 Bytes           Packets
----            ---             ----            -----           --------                --------------          --------------          -------------   -----
00011.M2TS      4113 (0x1011)   0x02            MPEG-2                                  80,080                  26 686                  267 128 141     1 452 900
00011.M2TS      4352 (0x1100)   0x80            LPCM            rus (Russian)           80,080                  1 734                   17 353 928      108 012
00011.M2TS      4353 (0x1101)   0x80            LPCM            rus (Russian)           80,080                  1 734                   17 353 928      108 012
00011.M2TS      4354 (0x1102)   0x80            LPCM            rus (Russian)           80,080                  1 734                   17 353 928      108 012
QUICK SUMMARY:
Disc Title: MOSCOW_NOT_BELIEVE_IN_TEARS_HDCLUB
Disc Size: 34 951 562 986 bytes
Protection: AACS
BD-Java: No
Playlist: 00007.MPLS
Size: 341 753 856 bytes
Length: 0:01:20
Total Bitrate: 34,09 Mbps
Video: MPEG-2 Video / 26644 kbps / 1080p / 23,976 fps / 16:9
Audio: Russian / LPCM Audio / 2.0 / 48 kHz / 1536 kbps / 16-bit
Audio: Russian / LPCM Audio / 2.0 / 48 kHz / 1536 kbps / 16-bit
Audio: Russian / LPCM Audio / 2.0 / 48 kHz / 1536 kbps / 16-bit
********************
PLAYLIST: 00008.MPLS
********************
Total   Video
Title                                                           Codec   Length  Movie Size      Disc Size       Bitrate Bitrate Main Audio Track                          Secondary Audio Track
-----                                                           ------  ------- --------------  --------------  ------- ------- ------------------                        ---------------------
00008.MPLS                                                      MPEG-2  0:01:20 337 170 432     34 951 562 986  33,63   26,21   LPCM 2.0 1536Kbps (48kHz/16-bit)          LPCM 2.0 1536Kbps (48kHz/16-bit)
DISC INFO:
Disc Title:     MOSCOW_NOT_BELIEVE_IN_TEARS_HDCLUB
Disc Size:      34 951 562 986 bytes
Protection:     AACS
BD-Java:        No
BDInfo:         0.5.2
PLAYLIST REPORT:
Name:                   00008.MPLS
Size:                   337 170 432 bytes
Length:                 0:01:20 (h:m:s)
Total Bitrate:          33,63 Mbps
Description:
VIDEO:
Codec                   Bitrate             Description
-----                   -------             -----------
MPEG-2 Video            26206 kbps          1080p / 23,976 fps / 16:9
AUDIO:
Codec                           Language        Bitrate         Description
-----                           --------        -------         -----------
LPCM Audio                      Russian         1536 kbps       2.0 / 48 kHz / 1536 kbps / 16-bit
LPCM Audio                      Russian         1536 kbps       2.0 / 48 kHz / 1536 kbps / 16-bit
LPCM Audio                      Russian         1536 kbps       2.0 / 48 kHz / 1536 kbps / 16-bit
FILES:
Name            Time In         Length          Size            Total Bitrate
----            -------         ------          ----            -------------
00012.M2TS      0:00:00.000     0:01:20.205     337 170 432     33 631
CHAPTERS:
Number          Time In         Length          Avg Video Rate  Max 1-Sec Rate  Max 1-Sec Time  Max 5-Sec Rate  Max 5-Sec Time  Max 10Sec Rate  Max 10Sec Time  Avg Frame Size  Max Frame Size  Max Frame Time
------          -------         ------          --------------  --------------  --------------  --------------  --------------  --------------  --------------  --------------  --------------  --------------
1               0:00:00.000     0:01:20.205     26 206 kbps     30 977 kbps     00:01:18.119    27 190 kbps     00:00:04.796    26 945 kbps     00:00:41.958    136 626 bytes   604 596 bytes   00:00:49.382
STREAM DIAGNOSTICS:
File            PID             Type            Codec           Language                Seconds                 Bitrate                 Bytes           Packets
----            ---             ----            -----           --------                --------------          --------------          -------------   -----
00012.M2TS      4113 (0x1011)   0x02            MPEG-2                                  80,080                  26 247                  262 732 703     1 429 022
00012.M2TS      4352 (0x1100)   0x80            LPCM            rus (Russian)           80,080                  1 734                   17 353 928      108 012
00012.M2TS      4353 (0x1101)   0x80            LPCM            rus (Russian)           80,080                  1 734                   17 353 928      108 012
00012.M2TS      4354 (0x1102)   0x80            LPCM            rus (Russian)           80,080                  1 734                   17 353 928      108 012
QUICK SUMMARY:
Disc Title: MOSCOW_NOT_BELIEVE_IN_TEARS_HDCLUB
Disc Size: 34 951 562 986 bytes
Protection: AACS
BD-Java: No
Playlist: 00008.MPLS
Size: 337 170 432 bytes
Length: 0:01:20
Total Bitrate: 33,63 Mbps
Video: MPEG-2 Video / 26206 kbps / 1080p / 23,976 fps / 16:9
Audio: Russian / LPCM Audio / 2.0 / 48 kHz / 1536 kbps / 16-bit
Audio: Russian / LPCM Audio / 2.0 / 48 kHz / 1536 kbps / 16-bit
Audio: Russian / LPCM Audio / 2.0 / 48 kHz / 1536 kbps / 16-bit
********************
PLAYLIST: 00003.MPLS
********************
Total   Video
Title                                                           Codec   Length  Movie Size      Disc Size       Bitrate Bitrate Main Audio Track                          Secondary Audio Track
-----                                                           ------  ------- --------------  --------------  ------- ------- ------------------                        ---------------------
00003.MPLS                                                      MPEG-2  0:01:00 252 039 168     34 951 562 986  33,57   26,80   LPCM 2.0 1536Kbps (48kHz/16-bit)          LPCM 2.0 1536Kbps (48kHz/16-bit)
DISC INFO:
Disc Title:     MOSCOW_NOT_BELIEVE_IN_TEARS_HDCLUB
Disc Size:      34 951 562 986 bytes
Protection:     AACS
BD-Java:        No
BDInfo:         0.5.2
PLAYLIST REPORT:
Name:                   00003.MPLS
Size:                   252 039 168 bytes
Length:                 0:01:00 (h:m:s)
Total Bitrate:          33,57 Mbps
Description:
VIDEO:
Codec                   Bitrate             Description
-----                   -------             -----------
MPEG-2 Video            26802 kbps          1080p / 23,976 fps / 16:9
AUDIO:
Codec                           Language        Bitrate         Description
-----                           --------        -------         -----------
LPCM Audio                      Russian         1536 kbps       2.0 / 48 kHz / 1536 kbps / 16-bit
LPCM Audio                      Russian         1536 kbps       2.0 / 48 kHz / 1536 kbps / 16-bit
LPCM Audio                      Russian         1536 kbps       2.0 / 48 kHz / 1536 kbps / 16-bit
FILES:
Name            Time In         Length          Size            Total Bitrate
----            -------         ------          ----            -------------
00007.M2TS      0:00:00.000     0:01:00.059     252 039 168     33 572
CHAPTERS:
Number          Time In         Length          Avg Video Rate  Max 1-Sec Rate  Max 1-Sec Time  Max 5-Sec Rate  Max 5-Sec Time  Max 10Sec Rate  Max 10Sec Time  Avg Frame Size  Max Frame Size  Max Frame Time
------          -------         ------          --------------  --------------  --------------  --------------  --------------  --------------  --------------  --------------  --------------  --------------
1               0:00:00.000     0:01:00.059     26 802 kbps     31 314 kbps     00:00:05.296    28 362 kbps     00:00:05.296    28 122 kbps     00:00:05.296    139 734 bytes   644 082 bytes   00:00:13.096
STREAM DIAGNOSTICS:
File            PID             Type            Codec           Language                Seconds                 Bitrate                 Bytes           Packets
----            ---             ----            -----           --------                --------------          --------------          -------------   -----
00007.M2TS      4113 (0x1011)   0x02            MPEG-2                                  59,977                  26 839                  201 217 403     1 094 439
00007.M2TS      4352 (0x1100)   0x80            LPCM            rus (Russian)           59,977                  1 545                   11 579 568      72 072
00007.M2TS      4353 (0x1101)   0x80            LPCM            rus (Russian)           59,977                  1 545                   11 579 568      72 072
00007.M2TS      4354 (0x1102)   0x80            LPCM            rus (Russian)           59,977                  1 545                   11 579 568      72 072
QUICK SUMMARY:
Disc Title: MOSCOW_NOT_BELIEVE_IN_TEARS_HDCLUB
Disc Size: 34 951 562 986 bytes
Protection: AACS
BD-Java: No
Playlist: 00003.MPLS
Size: 252 039 168 bytes
Length: 0:01:00
Total Bitrate: 33,57 Mbps
Video: MPEG-2 Video / 26802 kbps / 1080p / 23,976 fps / 16:9
Audio: Russian / LPCM Audio / 2.0 / 48 kHz / 1536 kbps / 16-bit
Audio: Russian / LPCM Audio / 2.0 / 48 kHz / 1536 kbps / 16-bit
Audio: Russian / LPCM Audio / 2.0 / 48 kHz / 1536 kbps / 16-bit
********************
PLAYLIST: 00006.MPLS
********************
Total   Video
Title                                                           Codec   Length  Movie Size      Disc Size       Bitrate Bitrate Main Audio Track                          Secondary Audio Track
-----                                                           ------  ------- --------------  --------------  ------- ------- ------------------                        ---------------------
00006.MPLS                                                      MPEG-2  0:01:00 248 911 872     34 951 562 986  33,16   26,40   LPCM 2.0 1536Kbps (48kHz/16-bit)          LPCM 2.0 1536Kbps (48kHz/16-bit)
DISC INFO:
Disc Title:     MOSCOW_NOT_BELIEVE_IN_TEARS_HDCLUB
Disc Size:      34 951 562 986 bytes
Protection:     AACS
BD-Java:        No
BDInfo:         0.5.2
PLAYLIST REPORT:
Name:                   00006.MPLS
Size:                   248 911 872 bytes
Length:                 0:01:00 (h:m:s)
Total Bitrate:          33,16 Mbps
Description:
VIDEO:
Codec                   Bitrate             Description
-----                   -------             -----------
MPEG-2 Video            26404 kbps          1080p / 23,976 fps / 16:9
AUDIO:
Codec                           Language        Bitrate         Description
-----                           --------        -------         -----------
LPCM Audio                      Russian         1536 kbps       2.0 / 48 kHz / 1536 kbps / 16-bit
LPCM Audio                      Russian         1536 kbps       2.0 / 48 kHz / 1536 kbps / 16-bit
LPCM Audio                      Russian         1536 kbps       2.0 / 48 kHz / 1536 kbps / 16-bit
FILES:
Name            Time In         Length          Size            Total Bitrate
----            -------         ------          ----            -------------
00010.M2TS      0:00:00.000     0:01:00.059     248 911 872     33 155
CHAPTERS:
Number          Time In         Length          Avg Video Rate  Max 1-Sec Rate  Max 1-Sec Time  Max 5-Sec Rate  Max 5-Sec Time  Max 10Sec Rate  Max 10Sec Time  Avg Frame Size  Max Frame Size  Max Frame Time
------          -------         ------          --------------  --------------  --------------  --------------  --------------  --------------  --------------  --------------  --------------  --------------
1               0:00:00.000     0:01:00.059     26 404 kbps     30 878 kbps     00:00:58.391    27 322 kbps     00:00:28.111    27 197 kbps     00:00:26.651    137 657 bytes   649 631 bytes   00:00:23.106
STREAM DIAGNOSTICS:
File            PID             Type            Codec           Language                Seconds                 Bitrate                 Bytes           Packets
----            ---             ----            -----           --------                --------------          --------------          -------------   -----
00010.M2TS      4113 (0x1011)   0x02            MPEG-2                                  59,977                  26 441                  198 226 508     1 078 164
00010.M2TS      4352 (0x1100)   0x80            LPCM            rus (Russian)           59,977                  1 545                   11 579 568      72 072
00010.M2TS      4353 (0x1101)   0x80            LPCM            rus (Russian)           59,977                  1 545                   11 579 568      72 072
00010.M2TS      4354 (0x1102)   0x80            LPCM            rus (Russian)           59,977                  1 545                   11 579 568      72 072
QUICK SUMMARY:
Disc Title: MOSCOW_NOT_BELIEVE_IN_TEARS_HDCLUB
Disc Size: 34 951 562 986 bytes
Protection: AACS
BD-Java: No
Playlist: 00006.MPLS
Size: 248 911 872 bytes
Length: 0:01:00
Total Bitrate: 33,16 Mbps
Video: MPEG-2 Video / 26404 kbps / 1080p / 23,976 fps / 16:9
Audio: Russian / LPCM Audio / 2.0 / 48 kHz / 1536 kbps / 16-bit
Audio: Russian / LPCM Audio / 2.0 / 48 kHz / 1536 kbps / 16-bit
Audio: Russian / LPCM Audio / 2.0 / 48 kHz / 1536 kbps / 16-bit
********************
PLAYLIST: 00009.MPLS
********************
Total   Video
Title                                                           Codec   Length  Movie Size      Disc Size       Bitrate Bitrate Main Audio Track                          Secondary Audio Track
-----                                                           ------  ------- --------------  --------------  ------- ------- ------------------                        ---------------------
00009.MPLS                                                      MPEG-2  0:01:00 247 836 672     34 951 562 986  33,01   26,27   LPCM 2.0 1536Kbps (48kHz/16-bit)          LPCM 2.0 1536Kbps (48kHz/16-bit)
DISC INFO:
Disc Title:     MOSCOW_NOT_BELIEVE_IN_TEARS_HDCLUB
Disc Size:      34 951 562 986 bytes
Protection:     AACS
BD-Java:        No
BDInfo:         0.5.2
PLAYLIST REPORT:
Name:                   00009.MPLS
Size:                   247 836 672 bytes
Length:                 0:01:00 (h:m:s)
Total Bitrate:          33,01 Mbps
Description:
VIDEO:
Codec                   Bitrate             Description
-----                   -------             -----------
MPEG-2 Video            26267 kbps          1080p / 23,976 fps / 16:9
AUDIO:
Codec                           Language        Bitrate         Description
-----                           --------        -------         -----------
LPCM Audio                      Russian         1536 kbps       2.0 / 48 kHz / 1536 kbps / 16-bit
LPCM Audio                      Russian         1536 kbps       2.0 / 48 kHz / 1536 kbps / 16-bit
LPCM Audio                      Russian         1536 kbps       2.0 / 48 kHz / 1536 kbps / 16-bit
FILES:
Name            Time In         Length          Size            Total Bitrate
----            -------         ------          ----            -------------
00013.M2TS      0:00:00.000     0:01:00.059     247 836 672     33 012
CHAPTERS:
Number          Time In         Length          Avg Video Rate  Max 1-Sec Rate  Max 1-Sec Time  Max 5-Sec Rate  Max 5-Sec Time  Max 10Sec Rate  Max 10Sec Time  Avg Frame Size  Max Frame Size  Max Frame Time
------          -------         ------          --------------  --------------  --------------  --------------  --------------  --------------  --------------  --------------  --------------  --------------
1               0:00:00.000     0:01:00.059     26 267 kbps     30 148 kbps     00:00:05.213    27 529 kbps     00:00:05.296    27 311 kbps     00:00:31.698    136 942 bytes   564 562 bytes   00:00:12.470
STREAM DIAGNOSTICS:
File            PID             Type            Codec           Language                Seconds                 Bitrate                 Bytes           Packets
----            ---             ----            -----           --------                --------------          --------------          -------------   -----
00013.M2TS      4113 (0x1011)   0x02            MPEG-2                                  59,977                  26 303                  197 196 764     1 072 576
00013.M2TS      4352 (0x1100)   0x80            LPCM            rus (Russian)           59,977                  1 545                   11 579 568      72 072
00013.M2TS      4353 (0x1101)   0x80            LPCM            rus (Russian)           59,977                  1 545                   11 579 568      72 072
00013.M2TS      4354 (0x1102)   0x80            LPCM            rus (Russian)           59,977                  1 545                   11 579 568      72 072
QUICK SUMMARY:
Disc Title: MOSCOW_NOT_BELIEVE_IN_TEARS_HDCLUB
Disc Size: 34 951 562 986 bytes
Protection: AACS
BD-Java: No
Playlist: 00009.MPLS
Size: 247 836 672 bytes
Length: 0:01:00
Total Bitrate: 33,01 Mbps
Video: MPEG-2 Video / 26267 kbps / 1080p / 23,976 fps / 16:9
Audio: Russian / LPCM Audio / 2.0 / 48 kHz / 1536 kbps / 16-bit
Audio: Russian / LPCM Audio / 2.0 / 48 kHz / 1536 kbps / 16-bit
Audio: Russian / LPCM Audio / 2.0 / 48 kHz / 1536 kbps / 16-bit
********************
PLAYLIST: 00000.MPLS
********************
Total   Video
Title                                                           Codec   Length  Movie Size      Disc Size       Bitrate Bitrate Main Audio Track                          Secondary Audio Track
-----                                                           ------  ------- --------------  --------------  ------- ------- ------------------                        ---------------------
00000.MPLS                                                      AVC     0:00:51 113 190 912     34 951 562 986  17,59   15,87   LPCM 2.0 2304Kbps (48kHz/24-bit)
DISC INFO:
Disc Title:     MOSCOW_NOT_BELIEVE_IN_TEARS_HDCLUB
Disc Size:      34 951 562 986 bytes
Protection:     AACS
BD-Java:        No
BDInfo:         0.5.2
PLAYLIST REPORT:
Name:                   00000.MPLS
Size:                   113 190 912 bytes
Length:                 0:00:51 (h:m:s)
Total Bitrate:          17,59 Mbps
Description:
VIDEO:
Codec                   Bitrate             Description
-----                   -------             -----------
MPEG-4 AVC Video        15874 kbps          1080p / 23,976 fps / 16:9 / High Profile 4.1
AUDIO:
Codec                           Language        Bitrate         Description
-----                           --------        -------         -----------
LPCM Audio                      Russian         2304 kbps       2.0 / 48 kHz / 2304 kbps / 24-bit
FILES:
Name            Time In         Length          Size            Total Bitrate
----            -------         ------          ----            -------------
00000.M2TS      0:00:00.000     0:00:20.603     41 834 496      16 243
00001.M2TS      0:00:20.603     0:00:20.854     64 905 216      24 899
00002.M2TS      0:00:41.458     0:00:10.009     6 451 200       5 156
CHAPTERS:
Number          Time In         Length          Avg Video Rate  Max 1-Sec Rate  Max 1-Sec Time  Max 5-Sec Rate  Max 5-Sec Time  Max 10Sec Rate  Max 10Sec Time  Avg Frame Size  Max Frame Size  Max Frame Time
------          -------         ------          --------------  --------------  --------------  --------------  --------------  --------------  --------------  --------------  --------------  --------------
1               0:00:00.000     0:00:51.468     15 874 kbps     46 288 kbps     00:00:31.030    40 483 kbps     00:00:28.194    32 693 kbps     00:00:25.608    82 761 bytes    545 123 bytes   00:00:02.252
STREAM DIAGNOSTICS:
File            PID             Type            Codec           Language                Seconds                 Bitrate                 Bytes           Packets
----            ---             ----            -----           --------                --------------          --------------          -------------   -----
00000.M2TS      4113 (0x1011)   0x1B            AVC                                     20,521                  15 558                  39 907 555      217 186
00001.M2TS      4113 (0x1011)   0x1B            AVC                                     20,729                  21 664                  56 133 865      305 377
00001.M2TS      4352 (0x1100)   0x80            LPCM            rus (Russian)           20,729                  2 226                   5 767 336       31 952
00002.M2TS      4113 (0x1011)   0x1B            AVC                                     9,885                   4 926                   6 085 999       33 237
QUICK SUMMARY:
Disc Title: MOSCOW_NOT_BELIEVE_IN_TEARS_HDCLUB
Disc Size: 34 951 562 986 bytes
Protection: AACS
BD-Java: No
Playlist: 00000.MPLS
Size: 113 190 912 bytes
Length: 0:00:51
Total Bitrate: 17,59 Mbps
Video: MPEG-4 AVC Video / 15874 kbps / 1080p / 23,976 fps / 16:9 / High Profile 4.1
Audio: Russian / LPCM Audio / 2.0 / 48 kHz / 2304 kbps / 24-bit
[Профиль] [ЛС]
Кто просматривает тему:

Форум Тема Автор Размер
Документальные HD "Москва слезам не верит". Рождение легенды (Андрей Луков) [2015, Документальный, HDTV 1080i] TorrentFilm 3.94 GB
Культура и искусство "Москва Слезам не Верит": Рождение Легенды (2015) HDTVRip 720p sergej644 1.59 GB
Культура и спорт [Журнал/Газета] [Еженедельник] "Футбол"(Москва) [1960-1970, 2008-2013 PDF, RUS] sergej644 14.17 GB
Документальные HD «Путешествие из Петербурга в Москву: особый путь». автор Андрей Лошак 4 из 6 (Андрей Лошак) [2014, Документальный, HDTVRip 720p] TorrentFilm 3.1 GB
Фантастика, фэнтези Аноним (Роман Канушкин) - Канал имени Москвы (Новые легенды, 1) [Городское фэнтези, 2015, FB2] Garik014 2 MB
Кино СССР Битва за Москву (Юрий Озеров) [1985, Военный, DVDRip-AVC] E.S.P. 4.25 GB
Разная литература Вадим Бурлак - Москва подземная (2016) FB2 достали все 965 KB
Документальные HD Военный парад, посвященный 70-й годовщине Победы в ВОВ 1941-1945г . Москва (2015.05.09) HDTV [H.264/1080i] (НТВ HD) достали все 5.95 GB
Показать сообщения:    

Текущее время: Сегодня 16:30

Часовой пояс: GMT



Вы не можете начинать темы
Вы не можете отвечать на сообщения
Вы не можете редактировать свои сообщения
Вы не можете удалять свои сообщения
Вы не можете голосовать в опросах
Вы не можете прикреплять файлы к сообщениям
Вы не можете скачивать файлы