Москва слезам не верит (1979) BDRip 1080p от FREEISLAND

 
Автор Сообщение

sergej644 ®

Пол:

Стаж: 4 года 11 месяцев

Сообщений: 6035

Откуда: Soviet Union



Награды: Нет

Торрент-статистика

Создавать темы 27-Янв-2015 21:42

[Цитировать]

Москва слезам не верит
Год выпуска: 1979
Страна: СССР
Жанр: драма, мелодрама, комедия
Продолжительность: 02:28:17
Перевод: Не требуется
Режиссер: Владимир Меньшов

В ролях: Вера Алентова (Екатерина Александровна Тихомирова (Катя)), Ирина Муравьёва (Людмила Свиридова (Люда)), Алексей Баталов (Георгий Иванович (Гоша,Гога), заводской слесарь, возлюбленный Катерины), Раиса Рязанова (Антонина Буянова (Тося,Тоня)), Александр Фатюшин (Сергей Гурин, известный хоккеист, муж Людмилы), Борис Сморчков (Николай, рабочий на стройке, муж Антонины), Виктор Уральский (отец Николая), Валентина Ушакова (мама Николая), Юрий Васильев (Рудольф (Родион) Петрович Рачков, телеоператор из Останкино, отец ребенка Катерины), Евгения Ханаева (мама Рачкова)
Описание: Москва пятидесятых годов. Три молодые провинциалки приезжают в Москву в поисках того, что ищут люди во всех столицах мира — любви, счастья и достатка. Их судьбы складываются именно так, как предполагает характер каждой из девушек.
Антонина выходит замуж, растит детей, любит мужа. Людмиле Москва представляется лотереей, в которой она должна выиграть свое особенное счастье. Катерина же — отчаянно влюбляется, но избранник ее оставляет. Однако она не опускает руки, в одиночку растит дочь и к тому же успевает сделать блестящую карьеру. В сорок лет судьба дарит ей встречу с прекрасным человеком и настоящую любовь…


Качество: BDRip1080р
Формат: MKV
Видео кодек: H.264 (AVC)
Аудио кодеk: AC3
Видео: 1424x1080 (4:3), 23.976 fps, AVC, 9000 Kbps
Аудио: Аудио #1: AC3, 640 Kbps, 48.0 KHz, 6 ch

МедиаИнфо


x264 [info]: frame I:1136 Avg QP:17.49 size:186757
x264 [info]: frame P:42863 Avg QP:19.67 size: 92176
x264 [info]: frame B:169329 Avg QP:21.42 size: 34523
************************************************************
General
Unique ID : 184184462570673172382012693976605908341 (0x8A90A31DF037A2109A3DDDE06A19DD75)
Complete name : Moskva.slezam.ne verit.(1979)1080з.D-HD.mkv
Format : Matroska
Format version : Version 4 / Version 2
File size : 9.99 GiB
Duration : 2h 28mn
Overall bit rate : 9 641 Kbps
Encoded date : UTC 2013-09-09 05:01:07
Writing application : mkvmerge v6.2.0 ('Promised Land') built on Apr 28 2013 12:22:01
Writing library : libebml v1.3.0 + libmatroska v1.4.0
Video
ID : 1
Format : AVC
Format/Info : Advanced Video Codec
Format profile : High@L4.1
Format settings, CABAC : Yes
Format settings, ReFrames : 4 frames
Codec ID : V_MPEG4/ISO/AVC
Duration : 2h 28mn
Bit rate : 9 000 Kbps
Width : 1 424 pixels
Height : 1 080 pixels
Display aspect ratio : 4:3
Frame rate mode : Constant
Frame rate : 23.976 fps
Color space : YUV
Chroma subsampling : 4:2:0
Bit depth : 8 bits
Scan type : Progressive
Bits/(Pixel*Frame) : 0.244
Stream size : 9.12 GiB (91%)
Writing library : x264 core 138 r2359+704+48 3f879a0 tMod [8-bit@all X86_64]
Encoding settings : cabac=1 / ref=4 / deblock=1:-3:-3 / analyse=0x3:0x113 / me=umh / subme=11 / psy=1 / fade_compensate=0.00 / psy_rd=0.95:0.05 / mixed_ref=1 / me_range=48 / chroma_me=1 / trellis=2 / 8x8dct=1 / cqm=0 / deadzone=21,11 / fast_pskip=0 / chroma_qp_offset=-3 / threads=6 / lookahead_threads=1 / sliced_threads=0 / nr=0 / decimate=1 / interlaced=0 / bluray_compat=0 / constrained_intra=0 / fgo=0 / bframes=8 / b_pyramid=2 / b_adapt=2 / b_bias=0 / direct=3 / weightb=1 / open_gop=0 / weightp=2 / keyint=250 / keyint_min=23 / scenecut=40 / intra_refresh=0 / rc_lookahead=120 / rc=2pass / mbtree=0 / bitrate=9000 / ratetol=1.0 / qcomp=0.75 / qpmin=0:0:0 / qpmax=69:69:69 / qpstep=4 / cplxblur=20.0 / qblur=0.5 / vbv_maxrate=50000 / vbv_bufsize=62500 / nal_hrd=none / ip_ratio=1.40 / pb_ratio=1.20 / aq=3:0.80 / aq-sensitivity=15.00 / aq-factor=1.00:1.00:1.00 / aq2=0 / aq3=0
Language : English
Default : Yes
Forced : No
Matrix coefficients : BT.709
Audio
ID : 2
Format : AC-3
Format/Info : Audio Coding 3
Mode extension : CM (complete main)
Format settings, Endianness : Big
Codec ID : A_AC3
Duration : 2h 28mn
Bit rate mode : Constant
Bit rate : 640 Kbps
Channel(s) : 6 channels
Channel positions : Front: L C R, Side: L R, LFE
Sampling rate : 48.0 KHz
Bit depth : 16 bits
Compression mode : Lossy
Stream size : 679 MiB (7%)
Language : Russian
Default : Yes
Forced : No

Знаете ли Вы, что...

★ Исчез из фильма эпизод, где хоккеист Гурин (Александр Фатюшин), объявивший, что «завязал со спиртным и уходит на тренерскую работу», снова появляется пьяный и говорит: «Займи ещё трёшку для ровного счёта». Режиссёра попросили это убрать, сказав: «Давайте оставим надежду. Пусть зритель верит, что Гурин исправился».
★ Мужа Антонины мог сыграть Юрий Кузьменков. Но ассистент тогда привела двух актёров, которых Меньшов не знал. Это Борис Сморчков, его утвердили на роль Николая, и Александр Фатюшин, ставший в фильме хоккеистом Гуриным.
★ Лучший фильм по опросу журнала «Советский экран» в 1981 году.
★ Режиссер картины Владимир Меньшов сыграл в фильме небольшую роль-камео. Его герой — это один из друзей Гоши, которые присутствовали на пикнике.
★ На роль Катерины Тихомировой приглашали Ирину Купченко и Маргариту Терехову.
★ Занимает по посещаемости 2-е место среди отечественных фильмов за всю историю советского кинопроката.
★ Когда герои Алентовой и Баталова включают телевизор (перед приходом Александры), то «сетку» на экране сопровождает вальс из кинофильма «Розыгрыш» — предыдущей режиссёрской работы Владимира Меньшова. Подобный приём используется в следующем фильме Меньшова «Любовь и голуби», где по телевизору показывают фрагмент из «Москва слезам не верит».
★ Сценарий фильма был написан Валентином Чёрных для конкурса на лучший фильм о Москве. Он занял всего лишь третье место. Правда, два первых места вообще никому не присудили: не нашли достойных.
★ На роль сорокалетнего слесаря Гоши режиссёр пробовал Виталия Соломина, Леонида Дьячкова, других актёров. Ни один не подходил. И тогда Меньшов решил, что в крайнем случае сыграет эту роль сам.

Скриншоты

--
[Профиль] [ЛС]
Кто просматривает тему:

Форум Тема Автор Размер
Документальные HD "Москва слезам не верит". Рождение легенды (Андрей Луков) [2015, Документальный, HDTV 1080i] TorrentFilm 3.94 GB
Культура и искусство "Москва Слезам не Верит": Рождение Легенды (2015) HDTVRip 720p sergej644 1.59 GB
Культура и спорт [Журнал/Газета] [Еженедельник] "Футбол"(Москва) [1960-1970, 2008-2013 PDF, RUS] sergej644 14.17 GB
Документальные HD «Путешествие из Петербурга в Москву: особый путь». автор Андрей Лошак 4 из 6 (Андрей Лошак) [2014, Документальный, HDTVRip 720p] TorrentFilm 3.1 GB
Фантастика, фэнтези Аноним (Роман Канушкин) - Канал имени Москвы (Новые легенды, 1) [Городское фэнтези, 2015, FB2] Garik014 2 MB
Кино СССР Битва за Москву (Юрий Озеров) [1985, Военный, DVDRip-AVC] E.S.P. 4.25 GB
Разная литература Вадим Бурлак - Москва подземная (2016) FB2 достали все 965 KB
Документальные HD Военный парад, посвященный 70-й годовщине Победы в ВОВ 1941-1945г . Москва (2015.05.09) HDTV [H.264/1080i] (НТВ HD) достали все 5.95 GB
Показать сообщения:    

Текущее время: Сегодня 22:29

Часовой пояс: GMT



Вы не можете начинать темы
Вы не можете отвечать на сообщения
Вы не можете редактировать свои сообщения
Вы не можете удалять свои сообщения
Вы не можете голосовать в опросах
Вы не можете прикреплять файлы к сообщениям
Вы не можете скачивать файлы