"Москва слезам не верит". Рождение легенды (Андрей Луков) [2015, Документальный, HDTV 1080i]

 
Автор Сообщение

TorrentFilm ®

Пол:

Стаж: 2 года

Сообщений: 7741



Награды: Нет

Торрент-статистика

Создавать темы 12-Мар-2015 00:01

[Цитировать]

"Москва слезам не верит". Рождение легенды
Год выпуска: 2015
Страна: Россия
Студия: Первый канал
Жанр: Документальный
Продолжительность: 00:51:59
Перевод: Не требуется
Режиссер: Андрей Луков
Описание: В феврале 1980-го года во все московские кинотеатры выстроились длинные очереди. Тогда было холодно, но люди всё равно стояли в билетные кассы. Стояли, чтобы увидеть самую популярную новинку года - фильм "Москва слезам не верит"! Картина стала одной из самых любимых и самых кассовых за всю историю советского кино. Для всех до сих пор остается загадкой магнетизм и феноменальная популярность этой легендарной ленты, ставшей классикой отечественного кинематографа. Наверное, потому что это вечная история о любви и предательстве. Но во многом и благодаря той неповторимой ностальгической атмосфере, которую авторам удалость воссоздать при помощи мельчайших деталей и любопытных подробностей двух периодов в жизни нашей страны – 50-х и 70-х годов. Спустя 35 лет мы "вернулись" на съёмочную площадку фильма "Москва слезам не верит" и узнали, почему никто, даже актёры, не верил в успех фильма… за что режиссер Владимир Меньшов всё время кричал на Веру Алентову… почему хрустальные бокалы, магнитофоны и шерстяные пледы на протяжении всего фильма "кочевали" из квартиры в квартиру. Мы разыскали тот самый холодильник из квартиры главной героини и телевизор, по которому транслировался "Голубой огонёк"…
Доп. информация: Релиз -

Рип чистый. Без посторонних надписей. Выкладывается как есть.
Качество: HDTV 1080i
Контейнер: TS
Видео кодек: AVC
Аудио кодек: MP2
Видео: 1920x1080 (16:9) 25.000 fps ~ 13.5 Mbps, 0.260 bit/pixel
Аудио 1: MPEG Audio 48000Hz stereo 192 Кбит/сек 2 channels
Аудио 2: AC3, 6 channels, 48000Hz, 384 Кбит/сек

Скриншоты

MI

GeneralID : 1 (0x1)Complete name : H:\ВЫКЛАДКА\Москва слезам не верит. Рождение легенды (2015, Документальный, HDTV 1080i) (MYDIMKA).tsFormat : MPEG-TSFile size : 3.94 GiBDuration : 51mn 59sOverall bit rate mode : VariableOverall bit rate : 10.8 Mbps
VideoID : 1603 (0x643)Menu ID : 603 (0x25B)Format : AVCFormat/Info : Advanced Video CodecFormat profile : High@L4.0Format settings, CABAC : YesFormat settings, ReFrames : 3 framesCodec ID : 27Duration : 51mn 59sBit rate : 9 729 KbpsWidth : 1 920 pixelsHeight : 1 080 pixelsDisplay aspect ratio : 16:9Frame rate : 25.000 fpsStandard : ComponentColor space : YUVChroma subsampling : 4:2:0Bit depth : 8 bitsScan type : InterlacedScan order : Top Field FirstBits/(Pixel*Frame) : 0.188Stream size : 3.53 GiB (90%)Color primaries : BT.709Transfer characteristics : BT.709Matrix coefficients : BT.709
Audio #1ID : 2603 (0xA2B)Menu ID : 603 (0x25B)Format : AC-3Format/Info : Audio Coding 3Mode extension : CM (complete main)Format settings, Endianness : BigCodec ID : 6Duration : 51mn 59sBit rate mode : ConstantBit rate : 384 KbpsChannel(s) : 6 channelsChannel positions : Front: L C R, Side: L R, LFESampling rate : 48.0 KHzBit depth : 16 bitsCompression mode : LossyStream size : 143 MiB (4%)Language : Russian
Audio #2ID : 2604 (0xA2C)Menu ID : 603 (0x25B)Format : MPEG AudioFormat version : Version 1Format profile : Layer 2Codec ID : 3Duration : 51mn 59sBit rate mode : ConstantBit rate : 192 KbpsChannel(s) : 2 channelsSampling rate : 48.0 KHzCompression mode : LossyStream size : 71.4 MiB (2%)Language : Russian
[Профиль] [ЛС]
Показать сообщения:    

Текущее время: Сегодня 17:38

Часовой пояс: GMT



Вы не можете начинать темы
Вы не можете отвечать на сообщения
Вы не можете редактировать свои сообщения
Вы не можете удалять свои сообщения
Вы не можете голосовать в опросах
Вы не можете прикреплять файлы к сообщениям
Вы не можете скачивать файлы