Москва никогда не спит (2015) HDTVRip

 
Автор Сообщение

Шкипер ®

Пол:

Стаж: 1 год 7 месяцев

Сообщений: 51



Награды: Нет

Торрент-статистика

Создавать темы 12-Сен-2016 14:07

[Цитировать]

Информация о фильме
Название: Москва никогда не спит
Год выхода: 2015
Жанр: Драма, комедия, триллер
Режиссер: Джонни О’Райлли
В ролях: Евгения Брик (Хиривская), Михаил Ефремов, Алексей Серебряков, Виктор Вержбицкий, Алёна Бабенко, Юрий Стоянов, Любовь Аксёнова, Олег Долин, Яна Попова, Соня Реснянская
О фильме:
В день, когда Москва празднует очередной день рождения, каждый из пяти героев должен будет сделать свой жизненный выбор. Их судьбы пересекутся и изменятся навсегда. Предприниматель должен отстоять свой бизнес, которому угрожают госчиновники; начинающая певица разрывается между любовью и деньгами; знаменитый актер, которого похищают среди белого дня, наконец-то сможет побыть собой и сказать правду; молодой человек ищет возможность соединить долг и собственные желания; а ненавидящим друг друга сводным сестрам за одну опасную ночь удастся найти взаимопонимание. Связанные скрытыми узами, герои представят яркий портрет мегаполиса в День города. Под взрывы салюта раскроется безудержная энергия крупнейшего города Европы.

Страна: Россия, Ирландия
Студия: Blinder Films, НТВ-Кино, Snapshot Films
Продолжительность: 01:30:42
Перевод: Не требуется
Файл
Кодек: XviD
Качество: HDTVRip
Видео: 656x272 (2.40:1), 25 fps, XviD build 73 ~953 kbps avg, 0.21 bit/pixel
Звук: 48 kHz, MPEG Layer 3, 2 ch, ~128.00 kbps avg
Субтитры: Отсутствуют
Семпл

MI

General
Complete name : E:Изготовление рипаMoskva.nikogda.ne.spit.2015.HDTVRip.by shkiper.avi
Format : AVI
Format/Info : Audio Video Interleave
File size : 708 MiB
Duration : 1h 30mn
Overall bit rate : 1 091 Kbps
Writing application : VirtualDubMod 1.5.10.3 | www.virtualdub-fr.org || (build 2550/release)
Writing library : VirtualDubMod build 2550/release
Video
ID : 0
Format : MPEG-4 Visual
Format profile : Advanced Simple@L5
Format settings, BVOP : 1
Format settings, QPel : No
Format settings, GMC : No warppoints
Format settings, Matrix : Custom
Codec ID : XVID
Codec ID/Hint : XviD
Duration : 1h 30mn
Bit rate : 953 Kbps
Width : 656 pixels
Height : 272 pixels
Display aspect ratio : 2.40:1
Frame rate : 25.000 fps
Color space : YUV
Chroma subsampling : 4:2:0
Bit depth : 8 bits
Scan type : Progressive
Compression mode : Lossy
Bits/(Pixel*Frame) : 0.214
Stream size : 618 MiB (87%)
Writing library : XviD 73
Audio
ID : 1
Format : MPEG Audio
Format version : Version 1
Format profile : Layer 3
Codec ID : 55
Codec ID/Hint : MP3
Duration : 1h 30mn
Bit rate mode : Constant
Bit rate : 128 Kbps
Channel(s) : 2 channels
Sampling rate : 48.0 KHz
Compression mode : Lossy
Stream size : 83.0 MiB (12%)
Alignment : Aligned on interleaves
Interleave, duration : 40 ms (1.00 video frame)
Interleave, preload duration : 504 ms
Writing library : LAME3.99r
Encoding settings : -m s -V 4 -q 2 -lowpass 17 -b 128

Скриншоты

Релиз от:
[Профиль] [ЛС]
Кто просматривает тему:

Форум Тема Автор Размер
Документальные HD "Москва слезам не верит". Рождение легенды (Андрей Луков) [2015, Документальный, HDTV 1080i] TorrentFilm 3.94 GB
Культура и искусство "Москва Слезам не Верит": Рождение Легенды (2015) HDTVRip 720p sergej644 1.59 GB
Культура и спорт [Журнал/Газета] [Еженедельник] "Футбол"(Москва) [1960-1970, 2008-2013 PDF, RUS] sergej644 14.17 GB
Документальные HD «Путешествие из Петербурга в Москву: особый путь». автор Андрей Лошак 4 из 6 (Андрей Лошак) [2014, Документальный, HDTVRip 720p] TorrentFilm 3.1 GB
Фантастика, фэнтези Аноним (Роман Канушкин) - Канал имени Москвы (Новые легенды, 1) [Городское фэнтези, 2015, FB2] Garik014 2 MB
Кино СССР Битва за Москву (Юрий Озеров) [1985, Военный, DVDRip-AVC] E.S.P. 4.25 GB
Разная литература Вадим Бурлак - Москва подземная (2016) FB2 достали все 965 KB
Документальные HD Военный парад, посвященный 70-й годовщине Победы в ВОВ 1941-1945г . Москва (2015.05.09) HDTV [H.264/1080i] (НТВ HD) достали все 5.95 GB
Показать сообщения:    

Текущее время: Сегодня 11:53

Часовой пояс: GMT



Вы не можете начинать темы
Вы не можете отвечать на сообщения
Вы не можете редактировать свои сообщения
Вы не можете удалять свои сообщения
Вы не можете голосовать в опросах
Вы не можете прикреплять файлы к сообщениям
Вы не можете скачивать файлы