Москва - Лопушки (2014) WEB-DLRip-AVC от ExKinoRay

 
Автор Сообщение

sergej644 ®

Пол:

Стаж: 4 года 11 месяцев

Сообщений: 6046

Откуда: Soviet Union



Награды: Нет

Торрент-статистика

Создавать темы 09-Дек-2014 21:22

[Цитировать]

Информация о фильме
Название: Москва – Лопушки
Год выпуска: 2014
Жанр: Мелодрама
Режиссер: Юрий Морозов
В ролях: Анастасия Задорожная, Алла Юганова, Виталий Альшанский, Елена Мольченко, Дмитрий Наумов, Александр Волков, Лилия Хасанова
О фильме:
Две сестры — две полные противоположности. Полина — городская «фифа», работающая в крупном книжном издательстве. Маша — деревенская простушка, которая целыми днями возится в огороде, готовя на продажу заезжающим коммерсантам фермерские продукты. Жених Полины — ее босс, видный бизнесмен. Ухажер Маши — Вася, работяга и рубаха-парень. Все меняется в одночасье, когда в издательство к Полине заявляется жена ее босса, с которой он все как-то забывал развестись, и разом лишает Полину и жениха, и работы. Машина тихая жизнь в Лопушках круто переворачивается, когда скупщики продуктов ставят деревенским условие: либо селяне вдвое снижают цены, либо у них вообще не будут ничего покупать. Маша и Полина меняются местами: Полина мчится в деревню зализывать любовные раны, Маша рвется в Москву самостоятельно налаживать поставку продукции в город, чтобы не прогореть на процентах от посредников. Попадая в совершенно новые условия, каждая из девушек имеет возможность по-новому взглянуть на свою жизнь и проявить себя. У рафинированной Полины на деревенской почве открывается второе дыхание, она строит планы по реконструкции старинной усадьбы и налаживает эко-туризм в Лопушки. Да и Маша оказывается не лыком шита: со свойственной ей хозяйственностью и практической хваткой она выбивает павильон для лопушковской продукции на московском рынке.
Выпущено: Россия, ООО «Студия ПРО100 Фильм»
Продолжительность: 01:28:41
Перевод: Не требуется
Файл
Качество: WEB-DLRip (AVC)
Видео: MPEG-4 AVC, ~ 2522 Кбит/с, 1024x576
Аудио: AC3, 2 ch, 192 Кбит/с

MI

General
Unique ID : 195468726997216037847940915522833885907 (0x930DE84EBE25B338BEE10B2BAF262AD3)
Complete name : C:Moskva.Lopushki.2014.O.WEB-DLRip.AVC.ExKinoRay.mkv
Format : Matroska
Format version : Version 2
File size : 1.68 GiB
Duration : 1h 28mn
Overall bit rate : 2 714 Kbps
Movie name : Moskva Lopushki 2014 from ExKinoRay
Encoded date : UTC 2014-12-08 19:56:43
Writing application : mkvmerge v4.9.1 ('Ich will') built on Jul 11 2011 23:53:15
Writing library : libebml v1.2.1 + libmatroska v1.1.1
Video
ID : 1
Format : AVC
Format/Info : Advanced Video Codec
Format profile : High@L4.1
Format settings, CABAC : Yes
Format settings, ReFrames : 9 frames
Codec ID : V_MPEG4/ISO/AVC
Duration : 1h 28mn
Bit rate : 2 522 Kbps
Width : 1 024 pixels
Height : 576 pixels
Display aspect ratio : 16:9
Frame rate mode : Constant
Frame rate : 25.000 fps
Color space : YUV
Chroma subsampling : 4:2:0
Bit depth : 8 bits
Scan type : Progressive
Bits/(Pixel*Frame) : 0.171
Stream size : 1.53 GiB (91%)
Title : Enigma-Vladislav71
Writing library : x264 core 133 r2334 a3ac64b
Encoding settings : cabac=1 / ref=9 / deblock=1:-1:-2 / analyse=0x3:0x113 / me=umh / subme=11 / psy=1 / psy_rd=1.00:0.10 / mixed_ref=1 / me_range=32 / chroma_me=1 / trellis=2 / 8x8dct=1 / cqm=0 / deadzone=21,11 / fast_pskip=0 / chroma_qp_offset=-3 / threads=12 / lookahead_threads=2 / sliced_threads=0 / nr=0 / decimate=0 / interlaced=0 / bluray_compat=0 / constrained_intra=0 / bframes=9 / b_pyramid=2 / b_adapt=2 / b_bias=0 / direct=3 / weightb=1 / open_gop=0 / weightp=2 / keyint=250 / keyint_min=25 / scenecut=40 / intra_refresh=0 / rc=2pass / mbtree=0 / bitrate=2522 / ratetol=1.0 / qcomp=0.60 / qpmin=0 / qpmax=69 / qpstep=4 / cplxblur=20.0 / qblur=0.5 / ip_ratio=1.40 / pb_ratio=1.30 / aq=1:1.00
Default : Yes
Forced : No
Color primaries : BT.709
Transfer characteristics : BT.709
Matrix coefficients : BT.709
Audio
ID : 2
Format : AC-3
Format/Info : Audio Coding 3
Mode extension : CM (complete main)
Format settings, Endianness : Big
Codec ID : A_AC3
Duration : 1h 28mn
Bit rate mode : Constant
Bit rate : 192 Kbps
Channel(s) : 2 channels
Channel positions : Front: L R
Sampling rate : 48.0 KHz
Bit depth : 16 bits
Compression mode : Lossy
Stream size : 122 MiB (7%)
Language : Russian
Default : Yes
Forced : No

Скриншоты


Релиз от: Авторы релиза:
[Профиль] [ЛС]
Кто просматривает тему:

Форум Тема Автор Размер
Документальные HD "Москва слезам не верит". Рождение легенды (Андрей Луков) [2015, Документальный, HDTV 1080i] TorrentFilm 3.94 GB
Культура и искусство "Москва Слезам не Верит": Рождение Легенды (2015) HDTVRip 720p sergej644 1.59 GB
Культура и спорт [Журнал/Газета] [Еженедельник] "Футбол"(Москва) [1960-1970, 2008-2013 PDF, RUS] sergej644 14.17 GB
Документальные HD «Путешествие из Петербурга в Москву: особый путь». автор Андрей Лошак 4 из 6 (Андрей Лошак) [2014, Документальный, HDTVRip 720p] TorrentFilm 3.1 GB
Фантастика, фэнтези Аноним (Роман Канушкин) - Канал имени Москвы (Новые легенды, 1) [Городское фэнтези, 2015, FB2] Garik014 2 MB
Кино СССР Битва за Москву (Юрий Озеров) [1985, Военный, DVDRip-AVC] E.S.P. 4.25 GB
Разная литература Вадим Бурлак - Москва подземная (2016) FB2 достали все 965 KB
Документальные HD Военный парад, посвященный 70-й годовщине Победы в ВОВ 1941-1945г . Москва (2015.05.09) HDTV [H.264/1080i] (НТВ HD) достали все 5.95 GB
Показать сообщения:    

Текущее время: Сегодня 00:37

Часовой пояс: GMT



Вы не можете начинать темы
Вы не можете отвечать на сообщения
Вы не можете редактировать свои сообщения
Вы не можете удалять свои сообщения
Вы не можете голосовать в опросах
Вы не можете прикреплять файлы к сообщениям
Вы не можете скачивать файлы