Москва - Лопушки (2014) WEB-DLRip от ivandubskoj

 
Автор Сообщение

Белочка ®

Пол:

Стаж: 5 лет 1 месяц

Сообщений: 2089



Награды: 1 (Подробнее)

Girls (Количество: 1)
Торрент-статистика

Создавать темы 11-Окт-2014 19:34

[Цитировать]

Информация о фильме
Название: Москва - Лопушки
Год выхода: 2014
Жанр: Мелодрама, комедия
Режиссер: Юрий Морозов
В ролях: Анастасия Задорожная, Алла Юганова, Виталий Альшанский, Елена Мольченко, Дмитрий Наумов, Алина Бабак, Мария Кунах, Эрик Дик, Женя Хомжукова
О фильме:
Две сестры – две полные противоположности. Одна – Полина – городская фифа, работающая в крупном книжном издательстве. Другая – Маша – деревенская простушка, которая целыми днями возится в огороде, готовя на продажу заезжающим коммерсантам фермерские продукты. Жених Полины – ее босс, видный бизнесмен. Ухажер Маши – Вася, работяга и рубаха-парень. Все меняется в одночасье, когда в издательство к Полине заявляется жена ее босса, с которой он все как-то забывал развестись, и разом лишает Полину и жениха, и работы. Машина тихая жизнь в Лопушках круто переворачивается, когда скупщики продуктов ставят деревенским условие: либо селяне вдвое снижают цены, либо у них вообще не будут ничего покупать. Маша и Полина меняются местами: Полина мчится в деревню зализывать любовные раны, Маша рвется в Москву самостоятельно наладить поставку продукции в город, чтобы не прогорать на процентах от посредников.

Страна: Россия
Студия: Про100 Фильм
Продолжительность: 01:28:41
Перевод: Не требуется
Файл
Кодек: XviD
Качество: WEB-DLRip
Видео: XviD, 704x400 (16:9), 2004 Кбит/с, 25 кадр/с
Звук: Русский, Dolby AC3, 48000 Гц, 192 Кбит/с, 2 канала (Стерео)
Субтитры: Нет

MediaInfo

General
Complete name : Moskva.Lopushki.2014.WEB-DLRip.avi
Format : AVI
Format/Info : Audio Video Interleave
File size : 1.37 GiB
Duration : 1h 28mn
Overall bit rate : 2 205 Kbps
Writing application : VirtualDubMod 1.5.10.3 | www.virtualdub-fr.org || (build 2550/release)
Writing library : VirtualDubMod build 2550/release
Video
ID : 0
Format : MPEG-4 Visual
Format profile : Advanced Simple@L5
Format settings, BVOP : 1
Format settings, QPel : No
Format settings, GMC : No warppoints
Format settings, Matrix : Custom
Codec ID : XVID
Codec ID/Hint : XviD
Duration : 1h 28mn
Bit rate : 2 004 Kbps
Width : 704 pixels
Height : 400 pixels
Display aspect ratio : 16:9
Frame rate : 25.000 fps
Color space : YUV
Chroma subsampling : 4:2:0
Bit depth : 8 bits
Scan type : Progressive
Compression mode : Lossy
Bits/(Pixel*Frame) : 0.285
Stream size : 1.24 GiB (91%)
Writing library : XviD 73
Audio
ID : 1
Format : AC-3
Format/Info : Audio Coding 3
Mode extension : CM (complete main)
Codec ID : 2000
Duration : 1h 28mn
Bit rate mode : Constant
Bit rate : 192 Kbps
Channel(s) : 2 channels
Channel positions : Front: L R
Sampling rate : 48.0 KHz
Bit depth : 16 bits
Compression mode : Lossy
Stream size : 122 MiB (9%)
Alignment : Split accross interleaves
Interleave, duration : 40 ms (1.00 video frame)
Interleave, preload duration : 500 ms

Скриншоты

Автор рипа - ivandubskoj
[Профиль] [ЛС]
Кто просматривает тему:

Форум Тема Автор Размер
Документальные HD "Москва слезам не верит". Рождение легенды (Андрей Луков) [2015, Документальный, HDTV 1080i] TorrentFilm 3.94 GB
Культура и искусство "Москва Слезам не Верит": Рождение Легенды (2015) HDTVRip 720p sergej644 1.59 GB
Культура и спорт [Журнал/Газета] [Еженедельник] "Футбол"(Москва) [1960-1970, 2008-2013 PDF, RUS] sergej644 14.17 GB
Документальные HD «Путешествие из Петербурга в Москву: особый путь». автор Андрей Лошак 4 из 6 (Андрей Лошак) [2014, Документальный, HDTVRip 720p] TorrentFilm 3.1 GB
Фантастика, фэнтези Аноним (Роман Канушкин) - Канал имени Москвы (Новые легенды, 1) [Городское фэнтези, 2015, FB2] Garik014 2 MB
Кино СССР Битва за Москву (Юрий Озеров) [1985, Военный, DVDRip-AVC] E.S.P. 4.25 GB
Разная литература Вадим Бурлак - Москва подземная (2016) FB2 достали все 965 KB
Документальные HD Военный парад, посвященный 70-й годовщине Победы в ВОВ 1941-1945г . Москва (2015.05.09) HDTV [H.264/1080i] (НТВ HD) достали все 5.95 GB
Показать сообщения:    

Текущее время: Сегодня 23:28

Часовой пояс: GMT



Вы не можете начинать темы
Вы не можете отвечать на сообщения
Вы не можете редактировать свои сообщения
Вы не можете удалять свои сообщения
Вы не можете голосовать в опросах
Вы не можете прикреплять файлы к сообщениям
Вы не можете скачивать файлы