Морской туман / Haemoo (2014) BDRip 1080p | L2

 
Автор Сообщение

BOSS ®

Пол:

Стаж: 2 года 1 месяц

Сообщений: 3735

Откуда: ODESSA



Награды: 20 (Подробнее)

Top Keeper 1 (Количество: 1) Top Keeper 3 (Количество: 1) Top Releaser 2 (Количество: 1)
Торрент-статистика

Создавать темы 07-Ноя-2015 19:23

[Цитировать]

Информация о фильме
Название: Морской туман
Оригинальное название: Haemoo
Год выхода: 2014
Жанр: драма, ...
Режиссер: Шим Сон Бо
В ролях: Юн Сок Ким, Ючхон Пак, Е Ри Хан, Хи Чжун Ли, Сон Гын Мун, Сан Хо Ким (I), Сын Мок Ю, Ин Ги Чон, Гён Сук Чо, Чжу Бон Ки, Чжэ Мун Юн, ...
О фильме: Рыболовное судно «Jeonjiho» выходит в море для ловли рыбы. Но, как бы они ни надеялись на хороший улов, чуда не произошло. Чтобы хоть немного заработать, команда решает провезти на своем судне контрабандой безбилетников. Эти безбилетники — этнические корейцы, живущие в Китае и мечтающие перебраться в Южную Корею. На пути в Корею судно попадает в шторм, да и по пятам за ними следует южнокорейская Морская полиция. А в это время безбилетники в трюме «Jeonjiho» задыхаются до смерти. Среди этого хаоса самый молодой член экипажа Дон Сик изо всех сил пытается защитить молодую эмигрантку, в которую влюбился…

Официальный сайт
Страна: Корея Южная
Студия: Lewis Pictures
Продолжительность: 01:50:50
Перевод:
Любительский (двухголосый, закадровый) DeadSno & den904
Файл
Кодек: x264
Качество: BDRip 1080p
Видео: 1920x800, 19400 kbps, 23,976 fps
Звук:
Аудио #1: AC-3, 2 ch, 192 kbps (Rus) - DVOL DeadSno & den904
Аудио #2: DTS, 6 ch, 1509 kbps (Kor)
Субтитры: Английские

MI

x264 [info]: frame I:758 Avg QP:14.78 size:203944
x264 [info]: frame P:30839 Avg QP:16.38 size:124130
x264 [info]: frame B:127865 Avg QP:18.28 size: 97732
x264 [info]: consecutive B-frames: 1.4% 1.9% 6.1% 10.5% 13.6% 48.0% 5.3% 0.8% 5.0% 0.6% 3.0% 2.9% 0.8%
Общее
Уникальный идентификатор : 204827022560577260416129678876875092345 (0x9A183FE6E4CF1E0CBBEECC295D02F179)
Полное имя : C:TorrentМорской туман (Haemoo) 2014 BDRip 1080p.mkv
Формат : Matroska
Версия формата : Version 2
Размер файла : 16,7 Гбайт
Продолжительность : 1 ч. 50 м.
Общий поток : 21,5 Мбит/сек
Дата кодирования : UTC 2015-11-06 15:31:10
Программа кодирования : mkvmerge v4.0.0 ('The Stars were mine') сборка от Jun 6 2010 16:18:42
Библиотека кодирования : libebml v1.0.0 + libmatroska v1.0.0
Видео
Идентификатор : 1
Формат : AVC
Формат/Информация : Advanced Video Codec
Профиль формата : High@L4.1
Параметр CABAC формата : Да
Параметр ReFrames формата : 5 кадров
Идентификатор кодека : V_MPEG4/ISO/AVC
Продолжительность : 1 ч. 50 м.
Битрейт : 19,4 Мбит/сек
Ширина : 1920 пикселей
Высота : 800 пикселей
Соотношение сторон : 2,40:1
Режим частоты кадров : Постоянный
Частота кадров : 23,976 кадра/сек
Цветовое пространство : YUV
Субдискретизация насыщенности : 4:2:0
Битовая глубина : 8 бит
Тип развёртки : Прогрессивная
Бит/(Пиксели*Кадры) : 0.527
Размер потока : 15,0 Гбайт (90%)
Библиотека кодирования : x264 core 146 r2538 121396c
Настройки программы : cabac=1 / ref=5 / deblock=1:-3:-3 / analyse=0x3:0x133 / me=umh / subme=11 / psy=1 / psy_rd=1.00:0.00 / mixed_ref=1 / me_range=32 / chroma_me=1 / trellis=2 / 8x8dct=1 / cqm=0 / deadzone=21,11 / fast_pskip=1 / chroma_qp_offset=-4 / threads=12 / lookahead_threads=2 / sliced_threads=0 / nr=0 / decimate=0 / interlaced=0 / bluray_compat=0 / constrained_intra=0 / bframes=12 / b_pyramid=2 / b_adapt=2 / b_bias=0 / direct=3 / weightb=1 / open_gop=0 / weightp=2 / keyint=240 / keyint_min=23 / scenecut=40 / intra_refresh=0 / rc=crf / mbtree=0 / crf=17.0 / qcomp=0.60 / qpmin=0 / qpmax=69 / qpstep=4 / ip_ratio=1.40 / pb_ratio=1.30 / aq=1:0.80
Язык : Korean
Default : Нет
Forced : Нет
Аудио #1
Идентификатор : 2
Формат : AC-3
Формат/Информация : Audio Coding 3
Расширение режима : CM (complete main)
Параметр Endianness формата : Big
Идентификатор кодека : A_AC3
Продолжительность : 1 ч. 50 м.
Вид битрейта : Постоянный
Битрейт : 192 Кбит/сек
Каналы : 2 канала
Расположение каналов : Front: L R
Частота : 48,0 КГц
Метод сжатия : С потерями
Размер потока : 152 Мбайт (1%)
Заголовок : DVOL DeadSno & den904
Язык : Russian
Default : Нет
Forced : Нет
Аудио #2
Идентификатор : 3
Формат : DTS
Формат/Информация : Digital Theater Systems
Режим : 16
Параметр Endianness формата : Big
Идентификатор кодека : A_DTS
Продолжительность : 1 ч. 50 м.
Вид битрейта : Постоянный
Битрейт : 1509 Кбит/сек
Каналы : 6 каналов
Расположение каналов : Front: L C R, Side: L R, LFE
Частота : 48,0 КГц
Битовая глубина : 16 бит
Метод сжатия : С потерями
Размер потока : 1,17 Гбайт (7%)
Язык : Korean
Default : Нет
Forced : Нет
Текст
Идентификатор : 4
Формат : UTF-8
Идентификатор кодека : S_TEXT/UTF8
Идентификатор кодека/Информация : UTF-8 Plain Text
Язык : English
Default : Нет
Forced : Нет

[Профиль] [ЛС]
Кто просматривает тему:

Форум Тема Автор Размер
Документальные HD BBC: Морские гиганты / Ocean Giants / Episode 03 из (03) (Ингрид Квале / Ingrid Kvale, Аннушка Скофилд / Anuschka Schofield, Эллен Хусейн / Ellen Husain) [2011, Документальный, BDRemux 1080i] TorrentFilm 17.31 GB
Документальные HD BBC: Морские гиганты / Ocean Giants / Episode 03 из (03) (Ингрид Квале / Ingrid Kvale, Аннушка Скофилд / Anuschka Schofield, Эллен Хусейн / Ellen Husain) [2011, Документальный, BDRip 720p] TorrentFilm 9.65 GB
Разная литература Виктор Губарев - Сборник произведений (26 книг) [1980-2016, Морские приключения, История, Пираты, FB2, DOC, PDF, DjVu] Garik014 172 MB
Документальные HD Дикие Гавайи. Тайны морских глубин / Wild Hawaii. Secrets of the Deep (Карен Гринфилд) [2013, Документальный, BDRip 720p] TorrentFilm 1.91 GB
Фильмы 2006-2008 года Донки Панч / Морская прогулка / Donkey punch (Оливер Блэкберн / Oliver Blackburn) [2008, Великобритания, триллер, DVDRip-AVC] MVO + Original Eng TorrentFilm 2.18 GB
Зарубежные мультфильмы Клуб Винкс: Тайна морской бездны / Winx Club: Il mistero degli abissi (2014) BDRip [720p] sergej644 3.44 GB
Зарубежные мультфильмы Клуб Винкс: Тайна морской бездны / Winx Club: Il mistero degli abissi (2014) WEB-DLRip-AVC от ExKinoRay | iTunes Russia sergej644 2.24 GB
Зарубежные Молодой детектив Ди: Восстание морского дракона в 3Д / Di Renjie: Shen du long wang / Young Detective Dee: Rise of the Sea Dragon 3D (Цуй Харк / Tsui Hark) [2013, Фэнтези, боевик... TorrentFilm 38.91 GB
Показать сообщения:    

Текущее время: Сегодня 16:43

Часовой пояс: GMT



Вы не можете начинать темы
Вы не можете отвечать на сообщения
Вы не можете редактировать свои сообщения
Вы не можете удалять свои сообщения
Вы не можете голосовать в опросах
Вы не можете прикреплять файлы к сообщениям
Вы не можете скачивать файлы