Морской волк (1990) SATRip-AVC от ExKinoRay

 
Автор Сообщение

Russian Mafia ®

Пол:

Стаж: 1 год 8 месяцев

Сообщений: 4257



Награды: 10 (Подробнее)

Top Releaser 4 (Количество: 1) Mega Seeder 2 (Количество: 1) Mega Seeder 4 (Количество: 1)
Торрент-статистика

Создавать темы 20-Мар-2016 08:18

[Цитировать]

Информация о фильме
Название: Морской волк
Год выхода: 1990
Жанр: Драма
Режиссер: Игорь Апасян
В ролях: Любомирас Лауцявичюс, Андрей Руденский, Игорь Богодух, Игорь Божко, Мартиньш Вилсонс, Вадим Вильский, Виктор Гайнов, Николай Ерофеев, Сергей Королев, Игорь Лопухин-Полковник, Рудольф Мухин, Виктор Павловский, Алексей Серебряков, Анатолий Сливников, Елена Финогеева, Николай Чиндяйкин, Юрий Эллер
О фильме:
По мотивам одноимённого романа Джека Лондона. Молодой литератор Хэмфри Ван-Вейден решил навестить друга. На пароме "Мартинес" он отплавает из Сан-Франциско на другую сторону залива. В тумане паром сталкиваются с большим судном и за считанные минуты тонет. Оказавшись в воде, Хэмфри быстро обессилел. Спасение пришло неожиданно. С проходящей мимо шхуны случайно заметили человека в воде. Так Хэмфри оказался на борту рыболовецкой шхуны "Призрак", которой командовал капитан "Волк" Ларсен....
Страна: СССР
Продолжительность: 4 x ~ 01:10:41
Перевод: не требуется
Файл
Кодек: x264
Качество: SATRip-AVC
Видео: MPEG-4 AVC, ~1570 Кбит/с, [email protected]/* */
Звук: AC3, 2 ch, 192 Кбит/с

Скриншоты

Медиа-Инфо

Общее
Уникальный идентификатор : 245702149269153561000287454742249415315 (0xB8D8833E3205E235AB47A045C6672293)
Полное имя : R:МОИ РИПЫМорской волк_1990-SATRip-AVCМорской волк-1.mkv
Формат : Matroska
Версия формата : Version 2
Размер файла : 1,11 Гбайт
Продолжительность : 1 ч. 29 м.
Общий поток : 1764 Кбит/сек
Дата кодирования : UTC 2015-02-06 17:38:41
Программа кодирования : mkvmerge v5.8.0 ('No Sleep / Pillow') built on Sep 2 2012 15:37:04
Библиотека кодирования : libebml v1.2.3 + libmatroska v1.3.0
Видео
Идентификатор : 1
Формат : AVC
Формат/Информация : Advanced Video Codec
Профиль формата : High@L4.1
Параметр CABAC формата : Да
Параметр ReFrames формата : 16 кадров
Идентификатор кодека : V_MPEG4/ISO/AVC
Продолжительность : 1 ч. 29 м.
Битрейт : 1570 Кбит/сек
Ширина : 704 пикселя
Высота : 570 пикселей
Соотношение сторон : 4:3
Соотношение сторон в оригинале : 4:3
Режим частоты кадров : Постоянный
Частота кадров : 25,000 кадров/сек
Цветовое пространство : YUV
Субдискретизация насыщенности : 4:2:0
Битовая глубина : 8 бит
Тип развёртки : Прогрессивная
Бит/(Пиксели*Кадры) : 0.156
Размер потока : 986 Мбайт (87%)
Библиотека кодирования : x264 core 142 r2431 ac76440
Настройки программы : cabac=1 / ref=16 / deblock=1:-2:-2 / analyse=0x3:0x133 / me=umh / subme=10 / psy=1 / psy_rd=1.05:0.12 / mixed_ref=1 / me_range=24 / chroma_me=1 / trellis=2 / 8x8dct=1 / cqm=0 / deadzone=21,11 / fast_pskip=0 / chroma_qp_offset=-3 / threads=12 / lookahead_threads=3 / sliced_threads=0 / nr=0 / decimate=0 / interlaced=0 / bluray_compat=0 / constrained_intra=0 / bframes=13 / b_pyramid=2 / b_adapt=2 / b_bias=0 / direct=1 / weightb=1 / open_gop=0 / weightp=2 / keyint=250 / keyint_min=25 / scenecut=40 / intra_refresh=0 / rc=2pass / mbtree=0 / bitrate=1570 / ratetol=1.0 / qcomp=0.60 / qpmin=0 / qpmax=39 / qpstep=4 / cplxblur=20.0 / qblur=0.5 / ip_ratio=1.40 / pb_ratio=1.30 / aq=1:0.90
Язык : English
Default : Да
Forced : Нет
Основные цвета : BT.601 PAL
Характеристики трансфера : BT.470 System B, BT.470 System G
Коэффициенты матрицы : BT.601
Аудио
Идентификатор : 2
Формат : AC-3
Формат/Информация : Audio Coding 3
Расширение режима : CM (complete main)
Параметр Endianness формата : Big
Идентификатор кодека : A_AC3
Продолжительность : 1 ч. 29 м.
Вид битрейта : Постоянный
Битрейт : 192 Кбит/сек
Каналы : 2 канала
Расположение каналов : Front: L R
Частота : 48,0 КГц
Битовая глубина : 16 бит
Метод сжатия : С потерями
Задержка видео : 230 мс.
Размер потока : 123 Мбайт (11%)
Язык : Russian
Default : Да
Forced : Нет
[Профиль] [ЛС]
Кто просматривает тему:

Форум Тема Автор Размер
Документальные HD BBC: Морские гиганты / Ocean Giants / Episode 03 из (03) (Ингрид Квале / Ingrid Kvale, Аннушка Скофилд / Anuschka Schofield, Эллен Хусейн / Ellen Husain) [2011, Документальный, BDRemux 1080i] TorrentFilm 17.31 GB
Документальные HD BBC: Морские гиганты / Ocean Giants / Episode 03 из (03) (Ингрид Квале / Ingrid Kvale, Аннушка Скофилд / Anuschka Schofield, Эллен Хусейн / Ellen Husain) [2011, Документальный, BDRip 720p] TorrentFilm 9.65 GB
Разная литература Виктор Губарев - Сборник произведений (26 книг) [1980-2016, Морские приключения, История, Пираты, FB2, DOC, PDF, DjVu] Garik014 172 MB
Документальные HD Дикие Гавайи. Тайны морских глубин / Wild Hawaii. Secrets of the Deep (Карен Гринфилд) [2013, Документальный, BDRip 720p] TorrentFilm 1.91 GB
Фильмы 2006-2008 года Донки Панч / Морская прогулка / Donkey punch (Оливер Блэкберн / Oliver Blackburn) [2008, Великобритания, триллер, DVDRip-AVC] MVO + Original Eng TorrentFilm 2.18 GB
Зарубежные мультфильмы Клуб Винкс: Тайна морской бездны / Winx Club: Il mistero degli abissi (2014) BDRip [720p] sergej644 3.44 GB
Зарубежные мультфильмы Клуб Винкс: Тайна морской бездны / Winx Club: Il mistero degli abissi (2014) WEB-DLRip-AVC от ExKinoRay | iTunes Russia sergej644 2.24 GB
Зарубежные Молодой детектив Ди: Восстание морского дракона в 3Д / Di Renjie: Shen du long wang / Young Detective Dee: Rise of the Sea Dragon 3D (Цуй Харк / Tsui Hark) [2013, Фэнтези, боевик... TorrentFilm 38.91 GB
Показать сообщения:    

Текущее время: Сегодня 03:22

Часовой пояс: GMT



Вы не можете начинать темы
Вы не можете отвечать на сообщения
Вы не можете редактировать свои сообщения
Вы не можете удалять свои сообщения
Вы не можете голосовать в опросах
Вы не можете прикреплять файлы к сообщениям
Вы не можете скачивать файлы