Морской бой / Battleship (2012) BDRip 1080p | 60fps

 
Автор Сообщение

Russian Mafia ®

Пол:

Стаж: 1 год 8 месяцев

Сообщений: 4257



Награды: 10 (Подробнее)

Mega Seeder 2 (Количество: 1) Top Releaser 4 (Количество: 1) Top Releaser 2 (Количество: 1)
Торрент-статистика

Создавать темы 01-Сен-2016 15:49

[Цитировать]

Информация о фильме
Название: Морской бой
Оригинальное название: Battleship 1080 | 60fps
Год выхода: 2012
Режиссер: Питер Берг
В ролях: Тейлор Китч, Александр Скарсгард, Рианна, Бруклин Декер, Таданобу Асано, Лиам Нисон, Джон Туи, Грегори Д. Гэдсон, Джесси Племонс, Хамиш Линклэйтер
О фильме:
Мы посылаем сигналы в космос и ждем ответа. Но уверены ли мы, что хотим его получить? Что если пришельцы потенциально опасны? В 2009 году на конференции в Вашингтоне астронавт Эдгар Митчелл, побывавший на Луне, сделал сенсационное заявление о существовании внеземной жизни. Теперь мы знаем, контакт не просто возможен, он неизбежен!

Страна: США
Продолжительность: 02:11:15
Перевод: Профессиональный (дублированный)
Файл
Кодек: V_MPEG4/ISO/AVC
Качество: BDRip 1080 60fps
Видео: 1920x800 , 13000 , 59.940 fps
Звук: DTS 5.1, 48 kHz, 768 kbps avg | Дубляж, Blu-ray CEE

MI

General
Unique ID : 223801319747352645754623912960485892721 (0xA85E90FAF8072B9E8EF75ECB322E2271)
Complete name : F:Торент60fpsMorskoj.boj.2012.BDRip.60fps.GTP.mkv
Format : Matroska
Format version : Version 4 / Version 2
File size : 12.5 GiB
Duration : 2h 11mn
Overall bit rate : 13.7 Mbps
Movie name : Морской бой
Encoded date : UTC 2016-08-31 09:49:28
Writing application : mkvmerge v9.4.0 ('Knurl') 64bit
Writing library : libebml v1.3.4 + libmatroska v1.4.5
Video
ID : 1
Format : AVC
Format/Info : Advanced Video Codec
Format profile : High@L4.2
Format settings, CABAC : Yes
Format settings, ReFrames : 4 frames
Codec ID : V_MPEG4/ISO/AVC
Duration : 2h 11mn
Bit rate : 13.0 Mbps
Width : 1 920 pixels
Height : 800 pixels
Display aspect ratio : 2.40:1
Frame rate mode : Constant
Frame rate : 59.940 fps
Color space : YUV
Chroma subsampling : 4:2:0
Bit depth : 8 bits
Scan type : Progressive
Bits/(Pixel*Frame) : 0.141
Stream size : 11.8 GiB (94%)
Title : GTP
Writing library : x264 core 146 r2538 121396c
Encoding settings : cabac=1 / ref=4 / deblock=1:0:0 / analyse=0x3:0x113 / me=umh / subme=9 / psy=1 / psy_rd=1.00:0.10 / mixed_ref=1 / me_range=32 / chroma_me=1 / trellis=2 / 8x8dct=1 / cqm=0 / deadzone=21,11 / fast_pskip=1 / chroma_qp_offset=-3 / threads=12 / lookahead_threads=3 / sliced_threads=0 / nr=0 / decimate=1 / interlaced=0 / bluray_compat=0 / constrained_intra=0 / bframes=16 / b_pyramid=2 / b_adapt=2 / b_bias=0 / direct=3 / weightb=1 / open_gop=0 / weightp=2 / keyint=600 / keyint_min=59 / scenecut=40 / intra_refresh=0 / rc_lookahead=40 / rc=2pass / mbtree=1 / bitrate=13000 / ratetol=1.0 / qcomp=0.60 / qpmin=0 / qpmax=69 / qpstep=4 / cplxblur=20.0 / qblur=0.5 / vbv_maxrate=14000 / vbv_bufsize=14000 / nal_hrd=none / filler=0 / ip_ratio=1.40 / aq=1:1.00
Language : English
Default : Yes
Forced : No
Audio
ID : 2
Format : DTS
Format/Info : Digital Theater Systems
Mode : 16
Format settings, Endianness : Big
Codec ID : A_DTS
Duration : 2h 11mn
Bit rate mode : Constant
Bit rate : 768 Kbps
Channel(s) : 6 channels
Channel positions : Front: L C R, Side: L R, LFE
Sampling rate : 48.0 KHz
Frame rate : 93.750 fps (512 spf)
Bit depth : 24 bits
Compression mode : Lossy
Stream size : 721 MiB (6%)
Title : DTS - Дубляж (Blu-ray)
Language : Russian
Default : Yes
Forced : No
Text #1
ID : 3
Format : UTF-8
Codec ID : S_TEXT/UTF8
Codec ID/Info : UTF-8 Plain Text
Duration : 2h 10mn
Bit rate : 1 bps
Count of elements : 33
Stream size : 1.65 KiB (0%)
Title : Forced
Language : Russian
Default : Yes
Forced : No
Text #2
ID : 4
Format : UTF-8
Codec ID : S_TEXT/UTF8
Codec ID/Info : UTF-8 Plain Text
Duration : 2h 9mn
Bit rate : 72 bps
Count of elements : 1367
Stream size : 69.1 KiB (0%)
Title : Full - BD
Language : Russian
Default : No
Forced : No
Menu
00:00:00.000 : en:Chapter 01
00:09:24.105 : en:Chapter 02
00:15:04.320 : en:Chapter 03
00:23:08.679 : en:Chapter 04
00:29:44.032 : en:Chapter 05
00:36:26.810 : en:Chapter 06
00:42:01.269 : en:Chapter 07
00:49:09.655 : en:Chapter 08
00:56:08.323 : en:Chapter 09
01:00:02.224 : en:Chapter 10
01:09:50.520 : en:Chapter 11
01:15:26.731 : en:Chapter 12
01:20:56.935 : en:Chapter 13
01:29:47.424 : en:Chapter 14
01:37:14.412 : en:Chapter 15
01:43:32.248 : en:Chapter 16
01:49:38.572 : en:Chapter 17
01:56:20.682 : en:Chapter 18
02:00:41.359 : en:Chapter 19
02:09:33.975 : en:Chapter 20

Скриншоты

[Профиль] [ЛС]
Кто просматривает тему:

Форум Тема Автор Размер
Документальные HD BBC: Морские гиганты / Ocean Giants / Episode 03 из (03) (Ингрид Квале / Ingrid Kvale, Аннушка Скофилд / Anuschka Schofield, Эллен Хусейн / Ellen Husain) [2011, Документальный, BDRemux 1080i] TorrentFilm 17.31 GB
Документальные HD BBC: Морские гиганты / Ocean Giants / Episode 03 из (03) (Ингрид Квале / Ingrid Kvale, Аннушка Скофилд / Anuschka Schofield, Эллен Хусейн / Ellen Husain) [2011, Документальный, BDRip 720p] TorrentFilm 9.65 GB
Разная литература Виктор Губарев - Сборник произведений (26 книг) [1980-2016, Морские приключения, История, Пираты, FB2, DOC, PDF, DjVu] Garik014 172 MB
Документальные HD Дикие Гавайи. Тайны морских глубин / Wild Hawaii. Secrets of the Deep (Карен Гринфилд) [2013, Документальный, BDRip 720p] TorrentFilm 1.91 GB
Фильмы 2006-2008 года Донки Панч / Морская прогулка / Donkey punch (Оливер Блэкберн / Oliver Blackburn) [2008, Великобритания, триллер, DVDRip-AVC] MVO + Original Eng TorrentFilm 2.18 GB
Зарубежные мультфильмы Клуб Винкс: Тайна морской бездны / Winx Club: Il mistero degli abissi (2014) BDRip [720p] sergej644 3.44 GB
Зарубежные мультфильмы Клуб Винкс: Тайна морской бездны / Winx Club: Il mistero degli abissi (2014) WEB-DLRip-AVC от ExKinoRay | iTunes Russia sergej644 2.24 GB
Зарубежные Молодой детектив Ди: Восстание морского дракона в 3Д / Di Renjie: Shen du long wang / Young Detective Dee: Rise of the Sea Dragon 3D (Цуй Харк / Tsui Hark) [2013, Фэнтези, боевик... TorrentFilm 38.91 GB
Показать сообщения:    

Текущее время: Сегодня 11:05

Часовой пояс: GMT



Вы не можете начинать темы
Вы не можете отвечать на сообщения
Вы не можете редактировать свои сообщения
Вы не можете удалять свои сообщения
Вы не можете голосовать в опросах
Вы не можете прикреплять файлы к сообщениям
Вы не можете скачивать файлы