Морские котики против зомби / Navy SEALs vs. Zombies (2015) HDRip-AVC от ExKinoRay | L2

 
Автор Сообщение

достали все ®

Пол:

Стаж: 1 год 8 месяцев

Сообщений: 6570



Награды: 12 (Подробнее)

Top Releaser 4 (Количество: 1) Mega Seeder 2 (Количество: 1) За внесенный вклад в развитие сайта (Количество: 1)
Торрент-статистика

Создавать темы 04-Ноя-2015 04:10

[Цитировать]

Информация о фильме
Название: Морские котики против зомби
Оригинальное название: Navy SEALs vs. Zombies
Год выпуска: 2015
Жанр: Ужасы, боевик, зомби
Режиссер: Стэнтон Баррет
В ролях: Стефани Онор, Джером Эндрис, Сью-Линн Ансари, Джон Эперсон, Назима Бартек, Джеки Бекер, Сара Бенджамин, Массимо Добрович, Майкл К. Дуглас, Майкл Дудикофф
О фильме: Новый Орлеан внезапно подвергается вспышке страшного заболевания: тысячи людей за считанные часы превратились в толпу зомби, и теперь они — угроза для всего человечества. Остановить их способен только элитный отряд морских котиков, вооружённый до зубов и готовый дать отпор.

Выпущено: США, Hollywood Media Bridge, Media Circus, Throne Productions
Продолжительность: 01:36:56
Авторский перевод фильма: Ворон
Озвучивание: Любительское (двухголосое закадровое)(Ох! Студия) и Ворон
Файл
Качество: HDRip (AVC)
Видео: MPEG-4 AVC, 2035 Кбит/с, 1024х576
Аудио: Русский, английский (АС3, 6 ch, 448 Кбит/с)
Субтитры: Английские

Медиа-инфо

General
Unique ID : 179765897365596211714446223242679164526 (0x873DA708610A94118147EFC205321E6E)
Complete name : C:Navy.Seals.vs.Zombies.2015.DVO.HDRip.AVC.ExKinoRay.mkv
Format : Matroska
Format version : Version 4 / Version 2
File size : 1.99 GiB
Duration : 1h 37mn
Overall bit rate : 2 912 Kbps
Movie name : Navy Seals vs Zombies 2015 from ExKinoRay
Encoded date : UTC 2015-11-04 00:28:27
Writing application : mkvmerge v6.6.0 ('The Edge Of The In Between') built on Dec 1 2013 17:55:00
Writing library : libebml v1.3.0 + libmatroska v1.4.1
Video
ID : 1
Format : AVC
Format/Info : Advanced Video Codec
Format profile : High@L4.1
Format settings, CABAC : Yes
Format settings, ReFrames : 10 frames
Codec ID : V_MPEG4/ISO/AVC
Duration : 1h 37mn
Bit rate : 2 035 Kbps
Width : 1 024 pixels
Height : 576 pixels
Display aspect ratio : 16:9
Frame rate mode : Constant
Frame rate : 23.976 fps
Color space : YUV
Chroma subsampling : 4:2:0
Bit depth : 8 bits
Scan type : Progressive
Bits/(Pixel*Frame) : 0.144
Stream size : 1.34 GiB (67%)
Title : Enigma
Writing library : x264 core 133 r2334 a3ac64b
Encoding settings : cabac=1 / ref=10 / deblock=1:-2:-2 / analyse=0x3:0x113 / me=umh / subme=10 / psy=1 / psy_rd=1.05:0.15 / mixed_ref=1 / me_range=32 / chroma_me=1 / trellis=2 / 8x8dct=1 / cqm=0 / deadzone=21,11 / fast_pskip=0 / chroma_qp_offset=-3 / threads=12 / lookahead_threads=2 / sliced_threads=0 / nr=0 / decimate=0 / interlaced=0 / bluray_compat=0 / constrained_intra=0 / bframes=9 / b_pyramid=2 / b_adapt=2 / b_bias=0 / direct=3 / weightb=1 / open_gop=0 / weightp=2 / keyint=240 / keyint_min=23 / scenecut=40 / intra_refresh=0 / rc_lookahead=40 / rc=2pass / mbtree=0 / bitrate=2035 / ratetol=1.0 / qcomp=0.60 / qpmin=0 / qpmax=51 / qpstep=4 / cplxblur=20.0 / qblur=0.5 / vbv_maxrate=50000 / vbv_bufsize=62500 / nal_hrd=none / ip_ratio=1.40 / pb_ratio=1.30 / aq=1:1.00
Language : English
Default : Yes
Forced : No
Color primaries : BT.709
Transfer characteristics : BT.709
Matrix coefficients : BT.709
Audio #1
ID : 2
Format : AC-3
Format/Info : Audio Coding 3
Mode extension : CM (complete main)
Format settings, Endianness : Big
Codec ID : A_AC3
Duration : 1h 37mn
Bit rate mode : Constant
Bit rate : 448 Kbps
Channel(s) : 6 channels
Channel positions : Front: L C R, Side: L R, LFE
Sampling rate : 48.0 KHz
Bit depth : 16 bits
Compression mode : Lossy
Stream size : 314 MiB (15%)
Title : DVO (Oh studia i Voron)
Language : Russian
Default : Yes
Forced : No
Audio #2
ID : 3
Format : AC-3
Format/Info : Audio Coding 3
Mode extension : CM (complete main)
Format settings, Endianness : Big
Codec ID : A_AC3
Duration : 1h 37mn
Bit rate mode : Constant
Bit rate : 448 Kbps
Channel(s) : 6 channels
Channel positions : Front: L C R, Side: L R, LFE
Sampling rate : 48.0 KHz
Bit depth : 16 bits
Compression mode : Lossy
Stream size : 314 MiB (15%)
Language : English
Default : No
Forced : No
Text
ID : 4
Format : UTF-8
Codec ID : S_TEXT/UTF8
Codec ID/Info : UTF-8 Plain Text
Language : English
Default : No
Forced : No
Menu
00:00:00.000 : en:00:00:00.000
00:02:42.788 : en:00:02:42.788
00:10:27.126 : en:00:10:27.126
00:19:04.185 : en:00:19:04.185
00:25:52.217 : en:00:25:52.217
00:33:51.529 : en:00:33:51.529
00:42:12.029 : en:00:42:12.029
00:52:04.121 : en:00:52:04.121
01:03:04.781 : en:01:03:04.781
01:15:33.404 : en:01:15:33.404
01:22:23.897 : en:01:22:23.897
01:33:51.459 : en:01:33:51.459

Автор релиза:
[Профиль] [ЛС]
Кто просматривает тему:

Форум Тема Автор Размер
Документальные HD BBC: Морские гиганты / Ocean Giants / Episode 03 из (03) (Ингрид Квале / Ingrid Kvale, Аннушка Скофилд / Anuschka Schofield, Эллен Хусейн / Ellen Husain) [2011, Документальный, BDRemux 1080i] TorrentFilm 17.31 GB
Документальные HD BBC: Морские гиганты / Ocean Giants / Episode 03 из (03) (Ингрид Квале / Ingrid Kvale, Аннушка Скофилд / Anuschka Schofield, Эллен Хусейн / Ellen Husain) [2011, Документальный, BDRip 720p] TorrentFilm 9.65 GB
Разная литература Виктор Губарев - Сборник произведений (26 книг) [1980-2016, Морские приключения, История, Пираты, FB2, DOC, PDF, DjVu] Garik014 172 MB
Документальные HD Дикие Гавайи. Тайны морских глубин / Wild Hawaii. Secrets of the Deep (Карен Гринфилд) [2013, Документальный, BDRip 720p] TorrentFilm 1.91 GB
Фильмы 2006-2008 года Донки Панч / Морская прогулка / Donkey punch (Оливер Блэкберн / Oliver Blackburn) [2008, Великобритания, триллер, DVDRip-AVC] MVO + Original Eng TorrentFilm 2.18 GB
Зарубежные мультфильмы Клуб Винкс: Тайна морской бездны / Winx Club: Il mistero degli abissi (2014) BDRip [720p] sergej644 3.44 GB
Зарубежные мультфильмы Клуб Винкс: Тайна морской бездны / Winx Club: Il mistero degli abissi (2014) WEB-DLRip-AVC от ExKinoRay | iTunes Russia sergej644 2.24 GB
Зарубежные Молодой детектив Ди: Восстание морского дракона в 3Д / Di Renjie: Shen du long wang / Young Detective Dee: Rise of the Sea Dragon 3D (Цуй Харк / Tsui Hark) [2013, Фэнтези, боевик... TorrentFilm 38.91 GB
Показать сообщения:    

Текущее время: Сегодня 14:41

Часовой пояс: GMT



Вы не можете начинать темы
Вы не можете отвечать на сообщения
Вы не можете редактировать свои сообщения
Вы не можете удалять свои сообщения
Вы не можете голосовать в опросах
Вы не можете прикреплять файлы к сообщениям
Вы не можете скачивать файлы