Морские дьяволы. Рубежи Родины [1-40 из 40] (2018) WEB-DLRip

 
Author Message

Pensioner ®

Longevity: 2 years 10 months

Posts: 514

Location: Казахстан



: 5 ()

Top Releaser 2 (1) Mega Seeder 2 (1) Mega Seeder 1 (1)
Торрент-статистика

Post 08-Sep-2018 10:42

[Quote]

Оригинальное название: Морские дьяволы. Рубежи Родины
Год выпуска: 2018
Жанр: Боевик, приключения, детектив, криминал
Выпущено: Россия, Кинокомпания "Гамма-Продакшн"
Режиссер: Дмитрий Брусникин
В ролях: Олег Чернов, Дарья Юргенс (Лесникова), Иван Паршин, Антон Гуляев, Александра Большакова, Виталий Бисеров, Антон Багров, Марина Доможирова, Снежана Прудько, Кристина Оленникова, Руслан Ягудин, Александр Удальцов, Антон Чернов, Юлия Кудояр, Михаил Куряев, Владимир Потапов, Юлия Полынская, Роман Притула
О фильме: Из северных приграничных регионов отряд «НЕРПЫ» перебрасывается на секретную военную базу, местоположение которой строго засекречено, и каждое задание «НЕРП» – это боевой вылет (выезд) к месту проведения операции в разных уголках нашей страны. «Нерпами» по-прежнему командуют Бизон, Батя и Багира. В составе отряда: Кот, Сармат, Дана, Агата и Опер. Новые сюжеты развиваются в современных реалиях, в контексте, близком к сегодняшней геополитической ситуации, на фоне основных международных конфликтов, в том числе в информационной среде. В данном сезоне герои попадают в ещё более реалистичные и экстремальные ситуации. В основе каждого нового фильма по-прежнему остается остросюжетная детективная история.
Файл:
Качество: WEBRip
Видео: XviD, 1700 Кбит/с, 720x400
Аудио: AC3, 2 ch, 192 Кбит/с
Продолжительность: х ~ 00:51:00
Язык: Русский
Доп. ин.-ция

Внимание! Раздача ведётся путём добавления новых серий

Раздача ведётся путём добавления новых серий, при каждом добавлении создаётся новый торрент. Чтобы начать докачку новой серии, пользователям необходимо сделать следующее:
- Остановить скачивание.
- Удалить старый торрент у себя из клиента (старые серии удалять не надо).
- Скачать новый торрент и запустить его у себя в клиенте вместо старого, при этом указать клиенту путь в старую папку куда и должно происходить скачивание новых серий.
Ваш клиент при этом должен произвести хеширование (проверку) старой папки (если не производит сам - помогите ему сделать это), и будет докачивать только те серии которых у вас ещё нет. Старые серии при этом не удаляются, а продолжают раздаваться!

MediaInfo:

Общее
Полное имя : D:\моё видио\Морские дьяволы. Рубежи родины.2018.WEB-DLRip.Files-x\01.Морские дьяволы. Рубежи родины.2018.WEB-DLRip.Files-x.avi
Формат : AVI
Формат/Информация : Audio Video Interleave
Размер файла : 607 Мбайт
Продолжительность : 50 м.
Общий поток : 1698 Кбит/сек
Программа кодирования : VirtualDubMod 1.5.10.3 | www.virtualdub-fr.org || (build 2550/release)
Библиотека кодирования : VirtualDubMod build 2550/release
Видео
Идентификатор : 0
Формат : MPEG-4 Visual
Профиль формата : Advanced Simple@L5
Параметр BVOP формата : 1
Параметр QPel формата : Нет
Параметр GMC формата : Без точки перехода
Параметр матрицы формата : Выборочная
Идентификатор кодека : XVID
Идентификатор кодека/Подсказка : XviD
Продолжительность : 50 м.
Битрейт : 1496 Кбит/сек
Ширина : 720 пикселей
Высота : 400 пикселей
Соотношение сторон : 16:9
Частота кадров : 25,000 кадров/сек
Цветовое пространство : YUV
Субдискретизация насыщенности : 4:2:0
Битовая глубина : 8 бит
Тип развёртки : Прогрессивная
Метод сжатия : С потерями
Бит/(Пиксели*Кадры) : 0.208
Размер потока : 535 Мбайт (88%)
Библиотека кодирования : XviD 73
Аудио
Идентификатор : 1
Формат : AC-3
Формат/Информация : Audio Coding 3
Расширение режима : CM (complete main)
Параметр Endianness формата : Big
Идентификатор кодека : 2000
Продолжительность : 50 м.
Вид битрейта : Постоянный
Битрейт : 192 Кбит/сек
Каналы : 2 канала
Расположение каналов : Front: L R
Частота : 48,0 КГц
Битовая глубина : 16 бит
Метод сжатия : С потерями
Размер потока : 68,7 Мбайт (11%)
Выравнивание : Разделение по промежуткам
Продолжительность промежутка : 40 мс. (1,00 видеокадр)
Время предзагрузки промежутка : 500 мс.

Скриншоты

Добавлены 1-40 серии.


Last edited by Pensioner on 2019-09-28 03:04; edited 8 times in total
[Profile] [PM]

Pensioner ®

Longevity: 2 years 10 months

Posts: 514

Location: Казахстан



: 5 ()

Top Releaser 2 (1) Mega Seeder 3 (1) Mega Seeder 1 (1)
Торрент-статистика

Post 12-Apr-2019 14:33 (after 7 months 4 days)

[Quote]

Добавлены 25-30 серии.
[Profile] [PM]

Pensioner ®

Longevity: 2 years 10 months

Posts: 514

Location: Казахстан



: 5 ()

За внесенный вклад в развитие сайта (1) Mega Seeder 2 (1) Mega Seeder 1 (1)
Торрент-статистика

Post 28-Sep-2019 03:05 (after 5 months 15 days)

[Quote]

Добавлены 31-40 серии.
[Profile] [PM]

Pensioner ®

Longevity: 2 years 10 months

Posts: 514

Location: Казахстан



: 5 ()

Mega Seeder 3 (1) Mega Seeder 1 (1) Top Releaser 2 (1)
Торрент-статистика

Post 28-Sep-2019 03:06 (after 19 seconds)

[Quote]

Добавлены 31-40 серии.
[Profile] [PM]

Pensioner ®

Longevity: 2 years 10 months

Posts: 514

Location: Казахстан



: 5 ()

Mega Seeder 2 (1) Top Releaser 2 (1) За внесенный вклад в развитие сайта (1)
Торрент-статистика

Post 28-Sep-2019 03:06 (after 48 seconds)

[Quote]

Добавлены 31-40 серии.
[Profile] [PM]
Кто просматривает тему:

Forum Topic Author Size
Документальные HD BBC: Морские гиганты / Ocean Giants / Episode 03 из (03) (Ингрид Квале / Ingrid Kvale, Аннушка Скофилд / Anuschka Schofield, Эллен Хусейн / Ellen Husain) [2011, Документальный, BDRemux 1080i] TorrentFilm 17.31 GB
Документальные HD BBC: Морские гиганты / Ocean Giants / Episode 03 из (03) (Ингрид Квале / Ingrid Kvale, Аннушка Скофилд / Anuschka Schofield, Эллен Хусейн / Ellen Husain) [2011, Документальный, BDRip 720p] TorrentFilm 9.65 GB
National Geographic National Geographic: Гибель морского монстра / Death of a Sea Monster (Sue Houghton) [2010 г., Документальный, научно-популярный, палеонтология, исследования, HDTVRip-AVC 720p] skorpionN 1.47 GB
Документальные HD Дикие Гавайи. Тайны морских глубин / Wild Hawaii. Secrets of the Deep (Карен Гринфилд) [2013, Документальный, BDRip 720p] TorrentFilm 1.91 GB
Фильмы 2006-2008 года Донки Панч / Морская прогулка / Donkey punch (Оливер Блэкберн / Oliver Blackburn) [2008, Великобритания, триллер, DVDRip-AVC] MVO + Original Eng TorrentFilm 2.18 GB
Зарубежные мультфильмы Клуб Винкс: Тайна морской бездны / Winx Club: Il mistero degli abissi (2014) BDRip [720p] sergej644 3.44 GB
Зарубежные мультфильмы Клуб Винкс: Тайна морской бездны / Winx Club: Il mistero degli abissi (2014) WEB-DLRip-AVC от ExKinoRay | iTunes Russia sergej644 2.24 GB
Зарубежные Молодой детектив Ди: Восстание морского дракона в 3Д / Di Renjie: Shen du long wang / Young Detective Dee: Rise of the Sea Dragon 3D (Цуй Харк / Tsui Hark) [2013, Фэнтези, боевик... TorrentFilm 38.91 GB
Display posts from previous:    

The time now is: Today 17:26

All times are GMT



You cannot post new topics in this forum
You cannot reply to topics in this forum
You cannot edit your posts in this forum
You cannot delete your posts in this forum
You cannot vote in polls in this forum
You cannot attach files in this forum
You cannot download files in this forum