Морпехи 3: В осаде / Jarhead 3: The Siege (Уильям Кауфман / William Kaufman) [2016, США, Боевик, Военный, HDRip] Dub

 
Автор Сообщение

TorrentFilm ®

Пол:

Стаж: 2 года

Сообщений: 7741



Награды: Нет

Торрент-статистика

Создавать темы 09-Фев-2016 00:08

[Цитировать]

-Морпехи 3: В осаде / Jarhead 3: The Siege- -Страна: США
Жанр: Боевик, Военный
Год выпуска: 2016
Продолжительность: 01:28:59-Перевод: Профессиональный (дублированный)-Cубтитры: нет
Оригинальная аудиодорожка: нет-Режиссер: Уильям Кауфман / William Kaufman-В ролях: Скотт Эдкинс, Чарли Вебер, Том Эйнсли, Эрик Валдез, Данте Баско, Саша Джексон, Деннис Хейсбёрт, Стефен Хоган, Джо Корригалл, Адриан Ховард-Описание: Отряду морских пехотинцев, чья миссия — защита посольства США в одной из ближневосточных стран, приходится отражать внезапную атаку противника.- -Качество видео: HDRip
Формат видео: AVI-Видео: XviD, 672x288 (2.35:1), 23,976 fps, ~1000 kbps avg, 0.22 bit/pixel
Аудио: 48 kHz, MP3, 2/0 (L,R) ch, ~128 kbps avg-

MediaInfo

Complete name : C:\Users\1\Desktop\РАЗДАЧИ\Jarhead 3 The Siege (2015) HDRip.avi
Format : AVI
Format/Info : Audio Video Interleave
File size : 746 MiB
Duration : 1h 28mn
Overall bit rate : 1 171 Kbps
Writing application : VirtualDubMod 1.5.10.3 | www.virtualdub-fr.org || (build 2550/release)
Writing library : VirtualDub build 35491/release
Video
ID : 0
Format : MPEG-4 Visual
Format profile : Advanced Simple@L5
Format settings, BVOP : 1
Format settings, QPel : No
Format settings, GMC : No warppoints
Format settings, Matrix : Custom
Codec ID : XVID
Codec ID/Hint : XviD
Duration : 1h 28mn
Bit rate : 1 034 Kbps
Width : 672 pixels
Height : 288 pixels
Display aspect ratio : 2.35:1
Frame rate : 23.976 (23976/1000) fps
Color space : YUV
Chroma subsampling : 4:2:0
Bit depth : 8 bits
Scan type : Progressive
Compression mode : Lossy
Bits/(Pixel*Frame) : 0.223
Stream size : 658 MiB (88%)
Writing library : XviD 73
Audio
ID : 1
Format : MPEG Audio
Format version : Version 1
Format profile : Layer 3
Codec ID : 55
Codec ID/Hint : MP3
Duration : 1h 28mn
Bit rate mode : Constant
Bit rate : 128 Kbps
Channel(s) : 2 channels
Sampling rate : 48.0 KHz
Compression mode : Lossy
Stream size : 81.5 MiB (11%)
Alignment : Aligned on interleaves
Interleave, duration : 42 ms (1.00 video frame)
Interleave, preload duratio : 504 ms
Writing library : LAME3.99r
Encoding settings : -m s -V 4 -q 2 -lowpass 17 -b 128

Скриншот c названием фильма

Скриншоты

[Профиль] [ЛС]
Кто просматривает тему:

Форум Тема Автор Размер
Action Conspiracy: Weapons of Mass Destruction / Морпех против терроризма 4. Гидра должна умереть [L] [RUS / RUS] (2005) TorrentFilm 431 MB
National Geographic NG: Стаффордширское сокровище. Секреты утраченного золота / Treasure Hoard. Secrets of the Lost Gold (Мэл Морпет / Mel Morpeth) [2011 г., Документальный, история, исследования, HDTVRip 720p] skorpionN 1.38 GB
Action Морпех против терроризма 5: Из Багдада с любовью (2007) (RUS) | [Repack] Russian Mafia 321 MB
Фильмы (HD Rips | 720p, 1080p) Морпехи / Jarhead (2005) BDRip 1080p | D Russian Mafia 7.76 GB
Фильмы 2011 года Морпехи / Jarhead (Сэм Мендес) [2005 г., драма, военный, BDRip] Russian Mafia 2.18 GB
Фильмы (HD Rips | 720p, 1080p) Морпехи 2 : Поле огня / Jarhead 2: Field of Fire (Дон Майкл Пол / Don Michael Paul) [2014, США, Боевик, военный, BDRip 720p] VO (Andi) + Sub Rus + Original Eng reversefile 5.44 GB
Фильмы (HD DVD, Blu-ray и BDRemux) Морпехи 2: Поле огня / Jarhead 2: Field of Fire (2014) BDRemux [1080p] [Unrated] [VO] sergej644 28.02 GB
Фильмы 2014 года Морпехи 2: поле огня / Морпехи 2: на линии огня / Jarhead 2: field of fire (Дон Майкл Пол / Don Michael Paul) [2014, США, боевик, военный, DVDRip] VO (Andi) reversefile 1.37 GB
Показать сообщения:    

Текущее время: Сегодня 20:59

Часовой пояс: GMT



Вы не можете начинать темы
Вы не можете отвечать на сообщения
Вы не можете редактировать свои сообщения
Вы не можете удалять свои сообщения
Вы не можете голосовать в опросах
Вы не можете прикреплять файлы к сообщениям
Вы не можете скачивать файлы