Морпехи 3: В осаде / Jarhead 3: The Siege (Уильям Кауфман / William Kaufman) [2016, США, боевик, военный, HDRip] Dub + Original Eng

 
Автор Сообщение

TorrentFilm ®

Пол:

Стаж: 1 год 11 месяцев

Сообщений: 7741



Награды: Нет

Торрент-статистика

Создавать темы 06-Фев-2016 00:08

[Цитировать]

Морпехи 3: В осаде / Jarhead 3: The Siege
Страна: США
Жанр: боевик, военный
Год выпуска: 2016
Продолжительность: 01:28:59
Перевод: Профессиональный (дублированный) [лицензия]
Cубтитры: нет
Оригинальная аудиодорожка: английский
Режиссер: Уильям Кауфман / William Kaufman
В ролях: Скотт Эдкинс, Чарли Вебер, Том Эйнсли, Эрик Валдез, Данте Баско, Саша Джексон, Деннис Хейсбёрт, Стефен Хоган, Джо Корригалл, Адриан Ховард
Описание: Отряду морских пехотинцев, чья миссия — защита посольства США в одной из ближневосточных стран, приходится отражать внезапную атаку противника.

Качество видео: HDRip
Формат видео: AVI
Видео: Xvid, 720x304, 2,35:1, 23,976 fps, ~1742 kb/s
Аудио: AC3, 48 kHz, 6 ch, 448 kb/s

MediaInfo

Общее
Полное имя : Morpeh.3.2016.D.HDRip.1400MB..avi
Формат : AVI
Формат/Информация : Audio Video Interleave
Размер файла : 1,37 Гбайт
Продолжительность : 1 ч. 28 м.
Общий поток : 2199 Кбит/сек
Программа кодирования : VirtualDubMod 1.5.10.2 (build 2540/release)
Библиотека кодирования : VirtualDubMod build 2540/release
Видео
Идентификатор : 0
Формат : MPEG-4 Visual
Профиль формата : Advanced Simple@L5
Параметр BVOP формата : 2
Параметр QPel формата : Нет
Параметр GMC формата : Без точки перехода
Параметр матрицы формата : Default (MPEG)
Идентификатор кодека : XVID
Идентификатор кодека/Подсказка : XviD
Продолжительность : 1 ч. 28 м.
Битрейт : 1742 Кбит/сек
Ширина : 720 пикселей
Высота : 304 пикселя
Соотношение сторон : 2,35:1
Частота кадров : 23,976 (24000/1001) кадра/сек
Цветовое пространство : YUV
Субдискретизация насыщенности : 4:2:0
Битовая глубина : 8 бит
Тип развёртки : Прогрессивная
Метод сжатия : С потерями
Бит/(Пиксели*Кадры) : 0.332
Размер потока : 1,08 Гбайт (79%)
Библиотека кодирования : XviD 1.2.1 (UTC 2008-12-04)
Аудио
Идентификатор : 1
Формат : AC-3
Формат/Информация : Audio Coding 3
Расширение режима : CM (complete main)
Параметр Endianness формата : Big
Идентификатор кодека : 2000
Продолжительность : 1 ч. 28 м.
Вид битрейта : Постоянный
Битрейт : 448 Кбит/сек
Каналы : 6 каналов
Расположение каналов : Front: L C R, Side: L R, LFE
Частота : 48,0 КГц
Частота кадров : 31,250 кадров/сек (1536 spf)
Метод сжатия : С потерями
Размер потока : 285 Мбайт (20%)
Выравнивание : Разделение по промежуткам
Продолжительность промежутка : 42 мс. (1,00 видеокадр)
Время предзагрузки промежутка : 500 мс.

Скриншот c названием фильма

Скриншоты

[Профиль] [ЛС]
Кто просматривает тему:

Форум Тема Автор Размер
Action Conspiracy: Weapons of Mass Destruction / Морпех против терроризма 4. Гидра должна умереть [L] [RUS / RUS] (2005) TorrentFilm 431 MB
National Geographic NG: Стаффордширское сокровище. Секреты утраченного золота / Treasure Hoard. Secrets of the Lost Gold (Мэл Морпет / Mel Morpeth) [2011 г., Документальный, история, исследования, HDTVRip 720p] skorpionN 1.38 GB
Action Морпех против терроризма 5: Из Багдада с любовью (2007) (RUS) | [Repack] Russian Mafia 321 MB
Фильмы (HD Rips | 720p, 1080p) Морпехи / Jarhead (2005) BDRip 1080p | D Russian Mafia 7.76 GB
Фильмы 2011 года Морпехи / Jarhead (Сэм Мендес) [2005 г., драма, военный, BDRip] Russian Mafia 2.18 GB
Фильмы (HD Rips | 720p, 1080p) Морпехи 2 : Поле огня / Jarhead 2: Field of Fire (Дон Майкл Пол / Don Michael Paul) [2014, США, Боевик, военный, BDRip 720p] VO (Andi) + Sub Rus + Original Eng reversefile 5.44 GB
Фильмы (HD DVD, Blu-ray и BDRemux) Морпехи 2: Поле огня / Jarhead 2: Field of Fire (2014) BDRemux [1080p] [Unrated] [VO] sergej644 28.02 GB
Фильмы 2014 года Морпехи 2: поле огня / Морпехи 2: на линии огня / Jarhead 2: field of fire (Дон Майкл Пол / Don Michael Paul) [2014, США, боевик, военный, DVDRip] VO (Andi) reversefile 1.37 GB
Показать сообщения:    

Текущее время: Сегодня 14:02

Часовой пояс: GMT



Вы не можете начинать темы
Вы не можете отвечать на сообщения
Вы не можете редактировать свои сообщения
Вы не можете удалять свои сообщения
Вы не можете голосовать в опросах
Вы не можете прикреплять файлы к сообщениям
Вы не можете скачивать файлы