Морпехи 2: поле огня / Морпехи 2: на линии огня / Jarhead 2: field of fire (Дон Майкл Пол / Don Michael Paul) [2014, США, боевик, военный, DVDRip] VO (Andi)

 
Автор Сообщение

reversefile ®

Пол:

Стаж: 4 года 5 месяцев

Сообщений: 842

Откуда: ReverseFile.org



Награды: Нет

Торрент-статистика

Создавать темы 11-Авг-2014 10:41

[Цитировать]

Морпехи 2: поле огня / Морпехи 2: на линии огня / Jarhead 2: field of fire
Страна: США
Жанр: боевик, военный
Год выпуска: 2014
Продолжительность: 01:42:30
Перевод: Одноголосый закадровый (Andi)
Cубтитры: нет
Режиссер: Дон Майкл Пол / Don Michael Paul
В ролях: Джош Келли, Кесси Лэйтон, Джейсон Вонг, Джесси Гарсиа, Стивен Лэнг,
Описание: Отряд морпехов получает задание доставить груз боеприпасов на удаленный американский блокпост, затерянный в глуши Афганистана, на территории, контролируемой движением Талибан...
Доп. информация: Классический "военный боевик". Американцы любят снимать такие фильмы, а мы любим их смотреть.
Денег на пиротехнику и декорации не жалели, а для такого фильма - это самое главное
Над релизом работали:
перевод М. Васильев
озвучка Andi
Сэмпл: https://yadi.sk/i/nrbEzr9gZMTEy
Качество видео: DVDRip
Формат видео: AVI
Видео: 1458 Kbps, 720x304 (2.35:1) 23 976 fps MPEG 4 XviD
Аудио: 448 Kbps, 48.0 KHz, 16 bits, 6 ch AC 3

MediaInfo

General
Complete name : C:\Users\Владелец\Desktop\морпехи.avi
Format : AVI
Format/Info : Audio Video Interleave
File size : 1.37 GiB
Duration : 1h 42mn
Overall bit rate : 1 915 Kbps
Video
ID : 0
Format : MPEG-4 Visual
Format profile : Advanced Simple@L5
Format settings, BVOP : 4
Format settings, QPel : No
Format settings, GMC : No warppoints
Format settings, Matrix : Default (H.263)
Codec ID : XVID
Codec ID/Hint : XviD
Duration : 1h 42mn
Bit rate : 1 458 Kbps
Width : 720 pixels
Height : 304 pixels
Display aspect ratio : 2.35:1
Frame rate : 23.976 fps
Color space : YUV
Chroma subsampling : 4:2:0
Bit depth : 8 bits
Scan type : Progressive
Compression mode : Lossy
Bits/(Pixel*Frame) : 0.278
Stream size : 1.04 GiB (76%)
Writing library : XviD 65
Audio
ID : 1
Format : AC-3
Format/Info : Audio Coding 3
Mode extension : CM (complete main)
Format settings, Endianness : Big
Codec ID : 2000
Duration : 1h 42mn
Bit rate mode : Constant
Bit rate : 448 Kbps
Channel(s) : 6 channels
Channel positions : Front: L C R, Side: L R, LFE
Sampling rate : 48.0 KHz
Bit depth : 16 bits
Compression mode : Lossy
Stream size : 328 MiB (23%)
Alignment : Split accross interleaves
Interleave, duration : 42 ms (1.00 video frame)
Interleave, preload duration : 500 ms

Скриншот c названием фильма

Скриншоты




[Профиль] [ЛС]
Кто просматривает тему:

Форум Тема Автор Размер
Action Conspiracy: Weapons of Mass Destruction / Морпех против терроризма 4. Гидра должна умереть [L] [RUS / RUS] (2005) TorrentFilm 431 MB
National Geographic NG: Стаффордширское сокровище. Секреты утраченного золота / Treasure Hoard. Secrets of the Lost Gold (Мэл Морпет / Mel Morpeth) [2011 г., Документальный, история, исследования, HDTVRip 720p] skorpionN 1.38 GB
Action Морпех против терроризма 5: Из Багдада с любовью (2007) (RUS) | [Repack] Russian Mafia 321 MB
Фильмы (HD Rips | 720p, 1080p) Морпехи / Jarhead (2005) BDRip 1080p | D Russian Mafia 7.76 GB
Фильмы 2011 года Морпехи / Jarhead (Сэм Мендес) [2005 г., драма, военный, BDRip] Russian Mafia 2.18 GB
Фильмы (HD Rips | 720p, 1080p) Морпехи 2 : Поле огня / Jarhead 2: Field of Fire (Дон Майкл Пол / Don Michael Paul) [2014, США, Боевик, военный, BDRip 720p] VO (Andi) + Sub Rus + Original Eng reversefile 5.44 GB
Фильмы (HD DVD, Blu-ray и BDRemux) Морпехи 2: Поле огня / Jarhead 2: Field of Fire (2014) BDRemux [1080p] [Unrated] [VO] sergej644 28.02 GB
Фильмы (HD Rips | 720p, 1080p) Морпехи 3: В осаде / Jarhead 3: The Siege (2016) BDRip 1080p | Лицензия достали все 10.64 GB
Показать сообщения:    

Текущее время: Сегодня 04:44

Часовой пояс: GMT



Вы не можете начинать темы
Вы не можете отвечать на сообщения
Вы не можете редактировать свои сообщения
Вы не можете удалять свои сообщения
Вы не можете голосовать в опросах
Вы не можете прикреплять файлы к сообщениям
Вы не можете скачивать файлы