Морозова [Сезон 2, Серии 1-50 из 50] (2018) HDTVRip

 
Автор Сообщение

Pensioner ®

Стаж: 2 года

Сообщений: 419

Откуда: Казахстан



Награды: 1 (Подробнее)

За внесенный вклад в развитие сайта (Количество: 1)
Торрент-статистика

Создавать темы 08-Окт-2018 17:35

[Цитировать]

Оригинальное название: Морозова
Год выпуска: 2018
Жанр: Детектив, криминальный фильм, мелодрама
Выпущено: Россия, "DIXI-TV"
Режиссер: Иван Щёголев, Сергей Лесогоров
В ролях: Тара Амирханова, Дмитрий Мазуров, Андрей Носков, Дмитрий Блохин, Татьяна Лянник, Пётр Грезев, Кирилл Снегирёв, Дарья Корнева, Ольга Баранова, Александр Коротков (II), Александр Левин (II), Анастасия Бухарцева, Александр Касаткин (II), Олег Тарасов (II), Юлия Носова, Андрей Москвичёв, Максим Карушев, Дарья Петриченко, Валерий Сторожик
О фильме: Анна Морозова (Тара Амирханова) - начальник отдела традиционных экспертиз областного экспертно-криминалистического центра г. Калуги. Предмет ее исследования – улики и следы на месте преступления. В свое время Анна Михайловна прошла весь путь от стажера до начальника отдела, поэтому разбирается во всем. Дотошный характер Морозовой давно стал «притчей во языцех» как для коллег, так и для начальства. Зам. начальника областного УМВД Родионова (Марианна Шульц) знает: если дело попало в руки Морозовой, значит, жди сюрпризов. Ведь она непременно раскопает какую-нибудь новую версию, подвергая сомнению самые, казалось бы, очевидные факты. Есть в управлении и следователь, с которым Морозова очень любит работать – майор Авдеев (Дмитрий Блохин). Он вдумчивый и надежный, хотя и слегка флегматичный. Нередко к раскрытию уголовных дел в Москве Морозову привлекает ее учитель – Валерий Зайцев (Александр Галибин). Он был бы рад, если бы Морозова, эксперт от Бога, переехала из провинциальной Калуги в Москву. Но уговорить ее никак не удается. Сердцем Морозова накрепко прикипела к Калуге.
Файл:
Качество: HDTVRip
Видео: XviD, ~ 1500 Кбит/с, 720x400
Аудио: AC3, 2 ch, 192 Кбит/с
Продолжительность: x ~ 00:45:00
Язык: Русский
Доп. ин.-ция

Внимание! Раздача ведётся путём добавления новых серий

Раздача ведётся путём добавления новых серий, при каждом добавлении создаётся новый торрент. Чтобы начать докачку новой серии, пользователям необходимо сделать следующее:
- Остановить скачивание.
- Удалить старый торрент у себя из клиента (старые серии удалять не надо).
- Скачать новый торрент и запустить его у себя в клиенте вместо старого, при этом указать клиенту путь в старую папку куда и должно происходить скачивание новых серий.
Ваш клиент при этом должен произвести хеширование (проверку) старой папки (если не производит сам - помогите ему сделать это), и будет докачивать только те серии которых у вас ещё нет. Старые серии при этом не удаляются, а продолжают раздаваться!

MediaInfo:

Общее
Полное имя : D:\моё видио\Морозова 2 сезон.2018.HDTVRiip.Files-x\01.Морозова 2 сезон.2018.HDTVRiip.Files-x.avi
Формат : AVI
Формат/Информация : Audio Video Interleave
Размер файла : 597 Мбайт
Продолжительность : 49 м.
Общий поток : 1701 Кбит/сек
Программа кодирования : VirtualDubMod 1.5.10.3 | www.virtualdub-fr.org || (build 2550/release)
Библиотека кодирования : VirtualDubMod build 2550/release
Видео
Идентификатор : 0
Формат : MPEG-4 Visual
Профиль формата : Advanced Simple@L5
Параметр BVOP формата : 1
Параметр QPel формата : Нет
Параметр GMC формата : Без точки перехода
Параметр матрицы формата : Выборочная
Идентификатор кодека : XVID
Идентификатор кодека/Подсказка : XviD
Продолжительность : 49 м.
Битрейт : 1500 Кбит/сек
Ширина : 720 пикселей
Высота : 400 пикселей
Соотношение сторон : 16:9
Частота кадров : 25,000 кадров/сек
Цветовое пространство : YUV
Субдискретизация насыщенности : 4:2:0
Битовая глубина : 8 бит
Тип развёртки : Прогрессивная
Метод сжатия : С потерями
Бит/(Пиксели*Кадры) : 0.208
Размер потока : 526 Мбайт (88%)
Библиотека кодирования : XviD 73
Аудио
Идентификатор : 1
Формат : AC-3
Формат/Информация : Audio Coding 3
Расширение режима : CM (complete main)
Параметр Endianness формата : Big
Идентификатор кодека : 2000
Продолжительность : 49 м.
Вид битрейта : Постоянный
Битрейт : 192 Кбит/сек
Каналы : 2 канала
Расположение каналов : Front: L R
Частота : 48,0 КГц
Битовая глубина : 16 бит
Метод сжатия : С потерями
Размер потока : 67,3 Мбайт (11%)
Выравнивание : Разделение по промежуткам
Продолжительность промежутка : 40 мс. (1,00 видеокадр)
Время предзагрузки промежутка : 500 мс.

Скриншоты

Добавлены 1-50 серии.
2 сезон сериала залит полностью.


Последний раз редактировалось: Pensioner (2018-11-03 18:31), всего редактировалось 9 раз(а)
[Профиль] [ЛС]

Pensioner ®

Стаж: 2 года

Сообщений: 419

Откуда: Казахстан



Награды: 1 (Подробнее)

За внесенный вклад в развитие сайта (Количество: 1)
Торрент-статистика

Создавать темы 03-Ноя-2018 18:31 (спустя 26 дней)

[Цитировать]

Добавлены 47-50 серии.
[Профиль] [ЛС]
Показать сообщения:    

Текущее время: Сегодня 18:21

Часовой пояс: GMT



Вы не можете начинать темы
Вы не можете отвечать на сообщения
Вы не можете редактировать свои сообщения
Вы не можете удалять свои сообщения
Вы не можете голосовать в опросах
Вы не можете прикреплять файлы к сообщениям
Вы не можете скачивать файлы