Морозко (Александр Роу) [1964, сказка, DVDRip]

 
Автор Сообщение

sergej644 ®

Пол:

Стаж: 4 года 11 месяцев

Сообщений: 6043

Откуда: Soviet Union



Награды: Нет

Торрент-статистика

Создавать темы 19-Дек-2014 22:01

[Цитировать]

Морозко
Жанр: сказка
Год выпуска: 1964
Продолжительность: 01:18:50
Режиссёр: Александр Роу
В ролях: Александр Хвыля, Наталья Седых, Эдуард Изотов, Инна Чурикова, Павел Павленко, Вера Алтайская, Георгий Милляр, Галина Борисова (озвучание - Михаил Яншин), Анатолий Кубацкий, Валентин Брылеев, Татьяна Пельтцер, Татьяна Барышева, Варвара Попова, Зинаида Воркуль, Наталья Зорина, Клавдия Козлёнкова, Маргарита Корабельникова, Вера Петрова, Лев Потемкин, Андрей Стапран (озвучание - Юрий Медведев), Константин Старостин, Александр Тимонтаев, Юрий Чекулаев, Михаил Щербаков, Оля и Таня Юкины, Анастасия Зуева
Описание: Жили-были старик со старухой, и было у них две дочери. Одна, старикова - красавица, умница, рукодельница Настенька. Другая, старухина - некрасивая лентяйка и неумеха Марфушка. Тяжело жилось Настеньке в отчем доме, заставляла ее мачеха работать с утра до ночи и с ночи до утра, да всю злобу на ней вымещала. А в другой деревне жил с матерью добрый молодец Иван, любивший лишь себя самого и красотой да статью своей похвалявшийся. Отправился как-то Иван погулять по белу свету - людей посмотреть и себя показать. И повстречался ему волшебник - старичок Боровичок, подаривший Ивану волшебный лук и стрелы. А невежа Иван ему даже "спасибо" не сказал. Потом встретил Иван Настеньку - и поначалу на красу ее наглядеться не мог, однако, и ее обидел...
Доп. информация:
Сценарий: Николай Эрдман, Михаил Вольпин
Оператор: Дмитрий Суренский
Художник: Арсений Клопотовский
Композитор: Николай Будашкин
Текст песен: Михаил Вольпин
Вокал: Государственный Русский народный хор имени Пятницкого под руководством Валентина Левашова ("Свадебная"), Катя Матусова ("Кукушечка"), Эдуард Изотов (песня Иванушки)
Награды: "Золотой лев Святого Марка" на XVII Международном кинофестивале детских и юношеских фильмов в Венеции (1965), "Award of Excellence" от Консультативного совета по кинематографии США за лучший киносценарий для семейного просмотра
Ограничения на просмотр: для любой зрительской аудитории

Интересный факт

Много лет в Чехословакии (теперь - в Чехии) эту сказку показывают по телевидению на Новый год, она стала своего рода культом новогоднего праздника, примерно как в России фильм «Ирония судьбы, или С лёгким паром!». Есть сорт мороженого «Морозко» (по-чешски «Mrazík»). Посол Чехии Ярослав Башта вручил Инне Чуриковой за роль Марфушки серебряную медаль Яна Масарика.

Чтобы помнили...

Хотелось бы обратить ваше внимание на блистательнейшую работу "Бабы Яги Советского Союза" Георгия Милляра, уникального актера, прожившего 90 лет, сыгравшего тридцать больших ролей, принимавшего участие в дубляже семидесяти картин, озвучившего сотню мультипликационных фильмов. (Кстати, в этой сказке он сыграл две роли; вторую вы определите, взглянув на последний скриншот.)
А с Эдуардом Изотовым, сыгравшим Иванушку, судьба обошлась жестоко. В 1983 году за попытку обменять валюту на рубли (не хватало денег на строительство дачи) актер был осужден на три года с конфискацией имущества. Отбывал срок в Матросской Тишине, где мгновенно осунулся, постарел и все время находился в состоянии страха. Любой окрик, громкий звук доводили его до истерики. Пребывание в заключении оказало разрушительное действие на психику и здоровье актёра. Выйдя на свободу, перенес несколько инсультов, после чего потерял способность передвигаться, его речь стала невнятной, но самое главное - Эдуард Константинович перестал узнавать близких и порой вел себя, как буйнопомешанный. Был помещен в психбольницу, где скончался 8 марта 2003 года. Похоронен на Химкинском кладбище в Подмосковье.
Качество видео: DVDRip
Формат видео: AVI
Видео: 704x528 (1.33:1), 25 fps, XviD 1.2.1, 2164 kbps avg, 0.23 bit/pixel
Аудио: 48 kHz, AC3 Dolby Digital, 3/2 (L,C,R,l,r) + LFE ch, 448.00 kbps avg

MediaInfo

Полное имя : F:\Morozko\Morozko.avi
Формат : AVI
Формат/Информация : Audio Video Interleave
Размер файла : 1,44 Гбайт
Продолжительность : 1 ч. 18 м.
Общий поток : 2622 Кбит/сек
Программа кодирования : VirtualDubMod 1.5.10.3 (build 2550/release)
Библиотека кодирования : VirtualDubMod build 2550/release
Видео
Идентификатор : 0
Формат : MPEG-4 Visual
Профиль формата : Advanced Simple@L5
Параметр BVOP формата : 1
Параметр QPel формата : Нет
Параметр GMC формата : Без точки перехода
Параметр матрицы формата : Выборочная
Режим смешивания : Сжатый битовый поток
Идентификатор кодека : XVID
Идентификатор кодека/Подсказка : XviD
Продолжительность : 1 ч. 18 м.
Битрейт : 2164 Кбит/сек
Ширина : 704 пикселя
Высота : 528 пикселей
Соотношение сторон : 4:3
Частота кадров : 25,000 кадров/сек
Цветовое пространство : YUV
Субдискретизация насыщенности : 4:2:0
Битовая глубина : 8 бит
Тип развёртки : Прогрессивная
Метод сжатия : С потерями
Бит/(Пиксели*Кадры) : 0.233
Размер потока : 1,19 Гбайт (83%)
Библиотека кодирования : XviD 1.2.1 (UTC 2008-12-04)
Аудио
Идентификатор : 1
Формат : AC-3
Формат/Информация : Audio Coding 3
Расширение режима : CM (complete main)
Идентификатор кодека : 2000
Продолжительность : 1 ч. 18 м.
Вид битрейта : Постоянный
Битрейт : 448 Кбит/сек
Каналы : 6 каналов
Расположение каналов : Front: L C R, Side: L R, LFE
Частота : 48,0 КГц
Битовая глубина : 16 бит
Метод сжатия : С потерями
Размер потока : 253 Мбайт (17%)
Выравнивание : Разделение по промежуткам
Продолжительность промежутка : 40 мс. (1,00 видеокадр)
Время предзагрузки промежутка : 500 мс.

Скриншоты

[Профиль] [ЛС]
Кто просматривает тему:

Форум Тема Автор Размер
Dance, Club (Pop, Dance, Club) VA - Клубный хит от Деда Мороза. Зарубежный выпуск - 2014, MP3, 320 kbps Magnat 671 MB
Фильмы (HD Rips | 720p, 1080p) SOS, Дед Мороз или Все сбудется! (2015) WEB-DL [H.264/1080p-LQ] достали все 3.27 GB
Фильмы 2015 года SOS, Дед Мороз или Все сбудется! (Арман Геворгян) [2015 г., комедия, семейный, DVDRip] BOSS 1.36 GB
R.G.TorrentFilm Video SOS, Дед Мороз или Все сбудется! (Арман Геворгян) [2015, Комедия, семейный, WEB-DLRip] Один 777 745 MB
Фильмы (HD Rips | 720p, 1080p) SOS, Дед Мороз или Все сбудется! (Арман Геворгян) [2015, Россия, комедия, WEB-DL 1080p] + Original Rus TorrentFilm 3.27 GB
Фильмы 2015 года Вечная жизнь / Das ewige Leben (Вольфганг Мернбергер / Wolfgang Murnberger) [2015, Австрия, триллер, комедия, криминал, HDRip] VO (Павел Морозов) TorrentFilm 1.46 GB
R.G.TorrentFilm Video Забытое / 4Got10 (Тимоти Вудворд мл. / Timothy Woodward Jr.) [2015 г., Боевик, триллер, вестерн, HDRip] VO (Павел Морозов) Один 777 717 MB
Фильмы 2015 года Забытое / 4Got10 (Тимоти Вудворд мл. / Timothy Woodward Jr.) [2015, США, боевик, триллер, вестерн, HDRip] VO (Павел Морозов) TorrentFilm 1.42 GB
Показать сообщения:    

Текущее время: Сегодня 06:18

Часовой пояс: GMT



Вы не можете начинать темы
Вы не можете отвечать на сообщения
Вы не можете редактировать свои сообщения
Вы не можете удалять свои сообщения
Вы не можете голосовать в опросах
Вы не можете прикреплять файлы к сообщениям
Вы не можете скачивать файлы