Морозилка / Freezer (Микаэл Саломон / Mikael Salomon) [2014, США, Боевик, триллер, HDRip] VO (den904) + VO (Хихикающий доктор)

 
Автор Сообщение

Создавать темы 14-Июл-2014 09:10

Морозилка / Freezer- Год выпуска: 2014
Выпущено: США / Envision Media Arts
Жанр: боевик, триллер
Продолжительность: 01:22:10
Перевод (1): Одноголосый закадровый |den904| по переводу МЕГАПЫХАРЬ
Перевод (2): Одноголосый закадровый |Хихикающий доктор| по переводу МЕГАПЫХАРЬ
Cубтитры: нет-Режиссер:
Микаэл Саломон / Mikael Salomon-В ролях:
Дилан МакДермотт (Robert), Питер Фачинелли (Detective Sam Gurov), Юлия Снигирь (Alisa), Андрей Ивченко (Kiril), Паскаль Петарди (Vadim), Милан Малисич (Stepan), Дэвид МакНалли (Detective Al Dorian), Маркус Парило (Oleg)-Описание:
Роберт Сондерс, обычный механик, потерял сознание на своем дне рождения и очнулся в морозильнике. Появившиеся русские бандиты начинают обвинять его в краже 8 миллионов долларов. Чтоб Роберт быстрее отдал деньги, бандиты начинают пытать его холодом. Температура падает. Страх растет. Перед Робертом встает выбор, замерзнуть от холода или быть убитым русскими бандитами,так как его все равно живым не отпустят. Но может есть третий выбор..-Релиз группы | IMDB | КиноПоиск | Сэмпл |-Качество: HDRip [Freezer.2014.1080p.BluRay.x264-ROVERS]
Формат: AVI
Видео: 688x288 (2.39:1), 23.976 fps, XviD build 73 ~997 kbps avg, 0.21 bit/pixel
Аудио: 48 kHz, MPEG Layer 3, 2 ch, ~128.00 kbps avg (den904)
Аудио: 48 kHz, MPEG Layer 3, 2 ch, ~128.00 kbps avg (Хихикающий доктор)
-

Скриншоты

MediaInfo

General
Complete name                            : D:\Morozilka_2014_HDRip_745_by_Dalemake.avi
Format                                   : AVI
Format/Info                              : Audio Video Interleave
File size                                : 746 MiB
Duration                                 : 1h 22mn
Overall bit rate                         : 1 269 Kbps
Writing application                      : VirtualDubMod 1.5.10.3 | www.virtualdub-fr.org || (build 2550/release)
Writing library                          : VirtualDubMod build 2550/release
Video
ID                                       : 0
Format                                   : MPEG-4 Visual
Format profile                           : Advanced Simple@L5
Format settings, BVOP                    : 1
Format settings, QPel                    : No
Format settings, GMC                     : No warppoints
Format settings, Matrix                  : Custom
Codec ID                                 : XVID
Codec ID/Hint                            : XviD
Duration                                 : 1h 22mn
Bit rate                                 : 999 Kbps
Width                                    : 688 pixels
Height                                   : 288 pixels
Display aspect ratio                     : 2.40:1
Frame rate                               : 23.976 fps
Color space                              : YUV
Chroma subsampling                       : 4:2:0
Bit depth                                : 8 bits
Scan type                                : Progressive
Compression mode                         : Lossy
Bits/(Pixel*Frame)                       : 0.210
Stream size                              : 587 MiB (79%)
Writing library                          : XviD 73
Audio #1
ID                                       : 1
Format                                   : MPEG Audio
Format version                           : Version 1
Format profile                           : Layer 3
Codec ID                                 : 55
Codec ID/Hint                            : MP3
Duration                                 : 1h 22mn
Bit rate mode                            : Constant
Bit rate                                 : 128 Kbps
Channel(s)                               : 2 channels
Sampling rate                            : 48.0 KHz
Compression mode                         : Lossy
Stream size                              : 75.2 MiB (10%)
Alignment                                : Aligned on interleaves
Interleave, duration                     : 42 ms (1.00 video frame)
Interleave, preload duration             : 504 ms
Writing library                          : LAME3.99r
Encoding settings                        : -m s -V 4 -q 2 -lowpass 17 -b 128
Audio #2
ID                                       : 2
Format                                   : MPEG Audio
Format version                           : Version 1
Format profile                           : Layer 3
Codec ID                                 : 55
Codec ID/Hint                            : MP3
Duration                                 : 1h 22mn
Bit rate mode                            : Constant
Bit rate                                 : 128 Kbps
Channel(s)                               : 2 channels
Sampling rate                            : 48.0 KHz
Compression mode                         : Lossy
Stream size                              : 75.2 MiB (10%)
Alignment                                : Aligned on interleaves
Interleave, duration                     : 42 ms (1.00 video frame)
Interleave, preload duration             : 504 ms
Writing library                          : LAME3.99r
Encoding settings                        : -m s -V 4 -q 2 -lowpass 17 -b 128
-
 
Кто просматривает тему:

Форум Тема Автор Размер
Dance, Club (Pop, Dance, Club) VA - Клубный хит от Деда Мороза. Зарубежный выпуск - 2014, MP3, 320 kbps Magnat 671 MB
Фильмы (HD Rips | 720p, 1080p) SOS, Дед Мороз или Все сбудется! (2015) WEB-DL [H.264/1080p-LQ] достали все 3.27 GB
Фильмы 2015 года SOS, Дед Мороз или Все сбудется! (Арман Геворгян) [2015 г., комедия, семейный, DVDRip] BOSS 1.36 GB
R.G.TorrentFilm Video SOS, Дед Мороз или Все сбудется! (Арман Геворгян) [2015, Комедия, семейный, WEB-DLRip] Один 777 745 MB
Фильмы (HD Rips | 720p, 1080p) SOS, Дед Мороз или Все сбудется! (Арман Геворгян) [2015, Россия, комедия, WEB-DL 1080p] + Original Rus TorrentFilm 3.27 GB
Фильмы 2015 года Вечная жизнь / Das ewige Leben (Вольфганг Мернбергер / Wolfgang Murnberger) [2015, Австрия, триллер, комедия, криминал, HDRip] VO (Павел Морозов) TorrentFilm 1.46 GB
R.G.TorrentFilm Video Забытое / 4Got10 (Тимоти Вудворд мл. / Timothy Woodward Jr.) [2015 г., Боевик, триллер, вестерн, HDRip] VO (Павел Морозов) Один 777 717 MB
Фильмы 2015 года Забытое / 4Got10 (Тимоти Вудворд мл. / Timothy Woodward Jr.) [2015, США, боевик, триллер, вестерн, HDRip] VO (Павел Морозов) TorrentFilm 1.42 GB
Показать сообщения:    

Текущее время: Сегодня 12:48

Часовой пояс: GMT



Вы не можете начинать темы
Вы не можете отвечать на сообщения
Вы не можете редактировать свои сообщения
Вы не можете удалять свои сообщения
Вы не можете голосовать в опросах
Вы не можете прикреплять файлы к сообщениям
Вы не можете скачивать файлы