Морозики-Морозы (Леонид Зарубин) [1986, СССР, Кукольный мультфильм, DVDRip]

 
Автор Сообщение

TorrentFilm ®

Пол:

Стаж: 2 года

Сообщений: 7741



Награды: Нет

Торрент-статистика

Создавать темы 15-Янв-2016 00:08

[Цитировать]

Морозики-Морозы
Страна: СССР
Жанр: Кукольный мультфильм
Продолжительность: 00:09:58
Год выпуска: 1986
Русские субтитры: нет
Режиссёр: Леонид Зарубин
Описание: Мультфильм о том, как из маленьких Морозиков вырастают настоящие Деды Морозы. Школа Дедов Морозов.
Доп. информация: «КИЕВНАУЧФИЛЬМ»
сценарист Александр Костинский
художник-постановщик Н. Сапожников
аниматоры Жан Таран, А. Трифонов, Элеонора Лисицкая
оператор Петр Ракитин
директоры Н. Литвиненко, Б. Снитко
композитор Юрий Шевченко
звукооператор Виктор Груздев
редактор Светлана Куценко
куклы и декорации Анатолий Радченко, Я. Горбаченко, Вадим Гахун, В. Яковенко, Игорь Воскобойник, О. Кульчицкий
Релиз группы:
Качество: DVDRip
Формат: AVI
Видео: 704x528 (1.33:1), 25 fps, XviD MPEG-4 ~2102 kbps avg, 0.23 bit/pixel
Аудио: 48 kHz, AC3 Dolby Digital, 1/0 (C) ch, ~96.00 kbps avg
Субтитры: нет

Подробные технические данные

Format : AVIFormat/Info : Audio Video InterleaveFile size : 158 MiBDuration : 9mn 58sOverall bit rate : 2 208 KbpsWriting application : VirtualDubModRus 1.5.10.2 (build 2542/release)Copyright : Rutracker.orgComment : DVDRip by dvdss
VideoID : 0Format : MPEG-4 VisualFormat profile : Advanced Simple@L5Format settings, BVOP : 2Format settings, QPel : NoFormat settings, GMC : No warppointsFormat settings, Matrix : CustomCodec ID : XVIDCodec ID/Hint : XviDDuration : 9mn 58sBit rate : 2 102 KbpsWidth : 704 pixelsHeight : 528 pixelsDisplay aspect ratio : 5:4Original display aspect ratio : 4:3Frame rate : 25.000 fpsColor space : YUVChroma subsampling : 4:2:0Bit depth : 8 bitsScan type : ProgressiveCompression mode : LossyBits/(Pixel*Frame) : 0.226Stream size : 150 MiB (95%)Writing library : XviD 65
AudioID : 1Format : AC-3Format/Info : Audio Coding 3Mode extension : CM (complete main)Format settings, Endianness : BigCodec ID : 2000Duration : 9mn 58sBit rate mode : ConstantBit rate : 96.0 KbpsChannel(s) : 1 channelChannel positions : Front: CSampling rate : 48.0 KHzBit depth : 16 bitsCompression mode : LossyDelay relative to video : 8msStream size : 6.85 MiB (4%)Alignment : Split accross interleavesInterleave, duration : 40 ms (1.00 video frame)Interleave, preload duration : 500 ms

Скриншоты

[Профиль] [ЛС]
Кто просматривает тему:

Форум Тема Автор Размер
Dance, Club (Pop, Dance, Club) VA - Клубный хит от Деда Мороза. Зарубежный выпуск - 2014, MP3, 320 kbps Magnat 671 MB
Фильмы (HD Rips | 720p, 1080p) SOS, Дед Мороз или Все сбудется! (2015) WEB-DL [H.264/1080p-LQ] достали все 3.27 GB
Фильмы 2015 года SOS, Дед Мороз или Все сбудется! (Арман Геворгян) [2015 г., комедия, семейный, DVDRip] BOSS 1.36 GB
R.G.TorrentFilm Video SOS, Дед Мороз или Все сбудется! (Арман Геворгян) [2015, Комедия, семейный, WEB-DLRip] Один 777 745 MB
Фильмы (HD Rips | 720p, 1080p) SOS, Дед Мороз или Все сбудется! (Арман Геворгян) [2015, Россия, комедия, WEB-DL 1080p] + Original Rus TorrentFilm 3.27 GB
Фильмы 2015 года Вечная жизнь / Das ewige Leben (Вольфганг Мернбергер / Wolfgang Murnberger) [2015, Австрия, триллер, комедия, криминал, HDRip] VO (Павел Морозов) TorrentFilm 1.46 GB
R.G.TorrentFilm Video Забытое / 4Got10 (Тимоти Вудворд мл. / Timothy Woodward Jr.) [2015 г., Боевик, триллер, вестерн, HDRip] VO (Павел Морозов) Один 777 717 MB
Фильмы 2015 года Забытое / 4Got10 (Тимоти Вудворд мл. / Timothy Woodward Jr.) [2015, США, боевик, триллер, вестерн, HDRip] VO (Павел Морозов) TorrentFilm 1.42 GB
Показать сообщения:    

Текущее время: Сегодня 16:25

Часовой пояс: GMT



Вы не можете начинать темы
Вы не можете отвечать на сообщения
Вы не можете редактировать свои сообщения
Вы не можете удалять свои сообщения
Вы не можете голосовать в опросах
Вы не можете прикреплять файлы к сообщениям
Вы не можете скачивать файлы