Морис Ришар / Maurice Richard (2005) BDRip 1080p | L1

 
Автор Сообщение

sergej644 ®

Пол:

Стаж: 4 года 11 месяцев

Сообщений: 6041

Откуда: Soviet Union



Награды: Нет

Торрент-статистика

Создавать темы 17-Фев-2015 19:38

[Цитировать]

Информация о фильме
Название: Морис Ришар
Оригинальное название: Maurice Richard
Год выпуска: 2005
Жанр: Драма, биография, спорт
Режиссер: Чарльз Бинами
В ролях: Рой Дюпюи, Жюли ЛеБретон, Шон Эйвери, Винсан Лекавалье, Стефан МакХатти, Тони Калабретта, Филип Крейг, Тедд Диллон
О фильме: Морис Ришар — легенда НХЛ и мирового хоккея, играл в «Монреаль Канадиенс» правым нападающим с 42-го по 1960-ый. За его спокойной внешностью обычного человека скрывались твердость, страсть и сверхъестественный талант, которые и превратили молодого игрока в Ракету (как его называли болельщики). Хотя его таланта и умений и было достаточно для того, чтобы попасть в Монреаль Канадиенс, частые травмы стоили ему доверия команды и болельщиков. В то время в Канаде людям разных культур (англофонным и франкофонным канадцам) отказывалось в равенстве, и он, будучи франкоговорящим хоккеистом (pea soup), высмеивался критиками за то, что «слишком слаб и хрупок для хоккея». Морис Ришар бросил вызов социальному и хоккейному неравенству и стал первым игроком, который когда-либо забивал 50 голов в 50 играх. Он играл с изяществом, скоростью и уверенностью, которые сделали его легендой. Он играл в хоккей нового уровня, который был пока еще недоступен большинству игроков, привыкших к прямолинейным силовым способам игры. Однако, несмотря на все успехи, Ришар и его коллеги, French Canadians, постоянно сталкивались с дискриминацией внутри лиги, где доминировали англоговорящие канадцы. И хотя Ришар был человеком немногословным, он начал высказывать свое мнение по поводу несправедливости, царившей в лиге. Это повлекло за собой конфликт с администрацией НХЛ и как следствие, его отстранение от игр в конце сезона 55-ого года. Отстранение Ришара возбудило один из самых крупных бунтов в Монреале тех времен. Болельщики вышли на улицы и начали громить город в знак протеста против решения Президента НХЛ. Беспорядки закончились только после того, как Ришар выступил по радио и попросил людей остановиться. Съемки фильма готовились при участии самого Мориса Ришара (он дожил до 80 лет), его жены и коллег. Сцены хоккейных баталий сделаны с документальной точностью....

Страна: Канада
Студия: Alliance Atlantis Vivafilm, Canadian Film or Video Production Tax Credit (CPTC), Cinémaginaire Inc., Desjardins, Téléfilm Canada
Продолжительность: 02:03:41
Перевод: Любительский одноголосый
Файл
Кодек: x264
Качество: BDRip 1080p
Видео: MPEG-4 AVC, 11900 Кбит/с, 1920x816, 23.976 кадр/с
Аудио #1: Русский (AC3, 6 ch, 448 Кбит/с) / Любительский одноголосый (Алексей Лыдин)
Аудио #2: Французский / Английский (DTS, 6 ch, 1509 Кбит/с)
Субтитры: Русские, английские
Семпл

MI

x264 [info]: frame I:1186 Avg QP:16.28 size:215419
x264 [info]: frame P:49414 Avg QP:18.57 size: 98578
x264 [info]: frame B:127337 Avg QP:21.12 size: 46709
==================================
Уникальный идентификатор : 182663413840646391421162431562109244400 (0x896BB19FE3B51358AAFD87FB3BA953F0)
Полное имя : E:MCMoris.Rischar.2005.x264.BDRip1080p-MediaClubMoris.Rischar.2005.x264.BDRip1080p-MediaClub.mkv
Формат : Matroska
Версия формата : Version 4 / Version 2
Размер файла : 12,0 Гбайт
Продолжительность : 2 ч. 3 м.
Общий поток : 13,9 Мбит/сек
Название фильма : -= Release MediaClub =-
Дата кодирования : UTC 2015-02-15 16:02:59
Программа кодирования : mkvmerge v7.2.0 ('On Every Street') 32bit built on Sep 13 2014 15:42:11
Библиотека кодирования : libebml v1.3.0 + libmatroska v1.4.1
_STATISTICS_WRITING_APP : mkvmerge v7.2.0 ('On Every Street') 32bit built on Sep 13 2014 15:42:11
_STATISTICS_WRITING_DATE_UTC : 2015-02-15 16:02:59
_STATISTICS_TAGS : BPS DURATION NUMBER_OF_FRAMES NUMBER_OF_BYTES
DURATION : 02:02:56.161000000
NUMBER_OF_FRAMES : 1116
NUMBER_OF_BYTES : 31784
Видео
Идентификатор : 1
Формат : AVC
Формат/Информация : Advanced Video Codec
Профиль формата : High@L4.1
Параметр CABAC формата : Да
Параметр ReFrames формата : 4 кадра
Идентификатор кодека : V_MPEG4/ISO/AVC
Продолжительность : 2 ч. 3 м.
Битрейт : 11,9 Мбит/сек
Ширина : 1920 пикселей
Высота : 816 пикселей
Соотношение сторон : 2,35:1
Режим частоты кадров : Постоянный
Частота кадров : 23,976 кадра/сек
Цветовое пространство : YUV
Субдискретизация насыщенности : 4:2:0
Битовая глубина : 8 бит
Тип развёртки : Прогрессивная
Бит/(Пиксели*Кадры) : 0.318
Размер потока : 10,1 Гбайт (84%)
Заголовок : Moris.Rischar.2005.x264.BDRip1080p-neni
Библиотека кодирования : x264 core 142 r2409+42 04be48a tMod [8-bit@4:2:0 X86_64]
Настройки программы : cabac=1 / ref=4 / deblock=1:-3:-3 / analyse=0x3:0x133 / me=umh / subme=11 / psy=1 / fade_compensate=0.00 / psy_rd=1.00:0.13 / mixed_ref=1 / me_range=48 / chroma_me=1 / trellis=2 / 8x8dct=1 / cqm=0 / deadzone=21,11 / fast_pskip=0 / chroma_qp_offset=-3 / threads=9 / lookahead_threads=1 / sliced_threads=0 / nr=0 / decimate=0 / interlaced=0 / bluray_compat=0 / constrained_intra=0 / fgo=0 / bframes=8 / b_pyramid=2 / b_adapt=2 / b_bias=0 / direct=3 / weightb=1 / open_gop=0 / weightp=2 / keyint=240 / keyint_min=23 / scenecut=40 / intra_refresh=0 / rc=2pass / mbtree=0 / bitrate=11939 / ratetol=1.0 / qcomp=0.60 / qpmin=0:0:0 / qpmax=69:69:69 / qpstep=4 / cplxblur=20.0 / qblur=0.5 / ip_ratio=1.40 / pb_ratio=1.30 / aq=2:1.00 / aq-sensitivity=10.00 / aq-factor=1.00:1.00:1.00 / aq2=0 / aq3=0
Язык : English
Default : Да
Forced : Нет
_STATISTICS_WRITING_APP : mkvmerge v7.2.0 ('On Every Street') 32bit built on Sep 13 2014 15:42:11
_STATISTICS_WRITING_DATE_UTC : 2015-02-15 16:02:59
_STATISTICS_TAGS : BPS DURATION NUMBER_OF_FRAMES NUMBER_OF_BYTES
DURATION : 02:03:41.456000000
NUMBER_OF_FRAMES : 177937
NUMBER_OF_BYTES : 11074442550
Аудио #1
Идентификатор : 2
Формат : AC-3
Формат/Информация : Audio Coding 3
Расширение режима : CM (complete main)
Параметр Endianness формата : Big
Идентификатор кодека : A_AC3
Продолжительность : 2 ч. 3 м.
Вид битрейта : Постоянный
Битрейт : 448 Кбит/сек
Каналы : 6 каналов
Расположение каналов : Front: L C R, Side: L R, LFE
Частота : 48,0 КГц
Битовая глубина : 16 бит
Метод сжатия : С потерями
Размер потока : 396 Мбайт (3%)
Заголовок : • Русский (AC3, 6 ch, 448 Кбит/с) - ЛО (Алексей Лыдин)
Язык : Russian
Default : Да
Forced : Да
Аудио #2
Идентификатор : 3
Формат : DTS
Формат/Информация : Digital Theater Systems
Режим : 16
Параметр Endianness формата : Big
Идентификатор кодека : A_DTS
Продолжительность : 2 ч. 3 м.
Вид битрейта : Постоянный
Битрейт : 1509 Кбит/сек
Каналы : 6 каналов
Расположение каналов : Front: L C R, Side: L R, LFE
Частота : 48,0 КГц
Битовая глубина : 24 бит
Метод сжатия : С потерями
Размер потока : 1,30 Гбайт (11%)
Заголовок : • Французский (DTS, 6 ch, 1509 Кбит/с) - (Original from BD)
Язык : French
Default : Нет
Forced : Нет
Текст #1
Идентификатор : 4
Формат : UTF-8
Идентификатор кодека : S_TEXT/UTF8
Идентификатор кодека/Информация : UTF-8 Plain Text
Язык : Russian
Default : Нет
Forced : Нет
Текст #2
Идентификатор : 5
Формат : UTF-8
Идентификатор кодека : S_TEXT/UTF8
Идентификатор кодека/Информация : UTF-8 Plain Text
Заголовок : English
Язык : English
Default : Нет
Forced : Нет
Меню
00:00:00.000 : en:(01)00:00:00:000
00:03:56.839 : en:(02)00:03:56:839
00:12:34.000 : en:(03)00:12:34:000
00:17:49.485 : en:(04)00:17:49:485
00:30:09.432 : en:(05)00:30:09:432
00:39:51.389 : en:(06)00:39:51:389
00:48:29.907 : en:(07)00:48:29:907
00:55:10.307 : en:(08)00:55:10:307
01:01:26.307 : en:(09)01:01:26:307
01:10:51.000 : en:(10)01:10:51:000
01:21:45.500 : en:(11)01:21:45:500
01:30:13.408 : en:(12)01:30:13:408
01:42:02.100 : en:(13)01:42:02:100
01:51:00.153 : en:(14)01:51:00:153
01:56:57.093 : en:(15)01:56:57:093
01:59:56.189 : en:(16)01:59:56:189

Скриншоты

[Профиль] [ЛС]
Кто просматривает тему:

Форум Тема Автор Размер
Сатира и юмор Виктор Ардов - Юмористические рассказы [Виктор Ардов, Фаина Раневская, Татьяна Пельтцер, Анастасия Георгиевская, Михаил Белоусов, Владимир Хенкин, 1976] Magnat 56 MB
Фантастика, фэнтези Владимир Савченко - Сборник произведений (62 книги) [1956-2016, Социальная фантастика, Научная фантастика, Юмористическая фантастика, FB2] Garik014 59 MB
Фантастика и фэнтези Запретная любовь (Шелонин Олег, Баженов Виктор) [2015, Юмористическая фантастика, аудиокнига, MP3, 128 kbps, Ларионов Сергей (babay7)] Magnat 635 MB
Фантастика и фэнтези Иван-царевич и С. Волк 2. Похищение Елены (Багдерина Светлана) [2015, Юмористическая фантастика, аудиокнига, MP3, 128 kbps, Eolla] Magnat 1.19 GB
Фантастика и фэнтези Иду на "ты" (Игорь Подгурский, Дмитрий Романтовский) [2015, юмористическое фентези, аудиокнига, MP3, 128 kbps, Александр Чайцын (Алекс)] Magnat 635 MB
Концерты Отечественных юмористов Измайловский парк. Большой юмористический концерт [эфир от 01.11] (2015) HDTVRip sergej644 1.24 GB
Фантастика, фэнтези Ирина Сыромятникова - Сборник произведений (15 книг) [2009-2014, Юмористическая фантастика, Фэнтези, FB2] Garik014 19 MB
Фантастика, фэнтези Книжная серия - «Колдовские Миры» (109 книг) [2011-2016, Фэнтези, Юмористическая фантастика, FB2] обновлено 11.02.2016 Garik014 185 MB
Показать сообщения:    

Текущее время: Сегодня 01:10

Часовой пояс: GMT



Вы не можете начинать темы
Вы не можете отвечать на сообщения
Вы не можете редактировать свои сообщения
Вы не можете удалять свои сообщения
Вы не можете голосовать в опросах
Вы не можете прикреплять файлы к сообщениям
Вы не можете скачивать файлы