Море и летающая рыба / The Sea & the Flying Fish (Мехрдад Гафарзаде / Mehrdad Ghafarzadeh) [2015, Иран, драма, SATRip-AVC] MVO (СВ-Дубль)

 
Автор Сообщение

TorrentFilm ®

Пол:

Стаж: 2 года

Сообщений: 7741



Награды: Нет

Торрент-статистика

Создавать темы 09-Окт-2015 00:10

[Цитировать]

-Море и летающая рыба / The Sea & the Flying Fish- Страна: Иран
Жанр: драма
Год выпуска: 2015
Продолжительность: 01:18:01-Перевод: Профессиональный (многоголосый закадровый) студия "СВ-Дубль" по заказу "Камер-тон-медиа"
Cубтитры: нет-Режиссер: Мехрдад Гафарзаде / Mehrdad Ghafarzadeh-В ролях: Хомаюн Эршади, Ниоша Зейгами, Амир Хоссейн Ростами, Н. Фаллах, С. Дж. Тахери-Описание: В ожидании пересмотра своего дела Эхсан попадает в центр содержания несовершеннолетних преступников. Здесь ему - слабому и глухонемому - вдвойне тяжело. Не в силах найти понимания ни со стороны администрации, ни внутри коллектива таких же подростков, как он сам, Эхсан пытается выразить себя при помощи рисунков. И росписи тюремных стен буквально будят его, давая шанс сделать маленький шаг навстречу жизни.-Доп. информация:

Сценарий: Мехрдад Гафарзаде, Ахбар Ру
Оператор: Мортеза Гафори
Композитор: Амир Тавассоли
Продюсер: Амир Пуркан-Номинации: Приз за лучший фильм - Золотой «Святой Георгий», ММКФ, 2015 г.
Награды: Диплом Гильдии киноведов и кинокритиков России, ММКФ, 2015 г.-Сэмпл: https://yadi.sk/i/mg7RtU2LjVmHh-Большое спасибо ItarTass за предоставленный исходник!-Качество видео: SATRip-AVC
Формат видео: MKV
Видео кодек: H.264
Аудио кодек: AC3
Видео: 688@743x440 анаморф (1.689:1), 25 fps, ~2297 kbps
Аудио: 48 kHz, AC3 Dolby Digital, 2/0 (L,R) ch, ~192 kbps

MediaInfo

General
Unique ID : 223236828046904752520351593456481379855 (0xA7F1D964072994F482CE5E6DF80CA60F)
Complete name : C:\Torrent\Море и летающая рыба.2015.SATRip-AVC by Dmitrio7197\Море и летающая рыба.2015.SATRip-AVC by Dmitrio7197.mkv
Format : Matroska
Format version : Version 2
File size : 1.36 GiB
Duration : 1h 18mn
Overall bit rate : 2 491 Kbps
Encoded date : UTC 2015-10-03 23:51:35
Writing application : mkvmerge v6.1.0 ('Old Devil') built on Mar 4 2013 09:10:42
Writing library : libebml v1.3.0 + libmatroska v1.4.0
Video
ID : 1
Format : AVC
Format/Info : Advanced Video Codec
Format profile : High@L4.1
Format settings, CABAC : Yes
Format settings, ReFrames : 8 frames
Codec ID : V_MPEG4/ISO/AVC
Duration : 1h 18mn
Bit rate : 2 297 Kbps
Width : 688 pixels
Height : 440 pixels
Display aspect ratio : 1.689
Frame rate mode : Constant
Frame rate : 25.000 fps
Color space : YUV
Chroma subsampling : 4:2:0
Bit depth : 8 bits
Scan type : Progressive
Bits/(Pixel*Frame) : 0.304
Stream size : 1.23 GiB (90%)
Writing library : x264 core 130 r2273 b3065e6
Encoding settings : cabac=1 / ref=8 / deblock=1:0:0 / analyse=0x3:0x113 / me=umh / subme=10 / psy=1 / psy_rd=1.00:0.00 / mixed_ref=1 / me_range=24 / chroma_me=1 / trellis=2 / 8x8dct=1 / cqm=0 / deadzone=21,11 / fast_pskip=1 / chroma_qp_offset=-2 / threads=6 / lookahead_threads=1 / sliced_threads=0 / nr=0 / decimate=0 / interlaced=0 / bluray_compat=0 / constrained_intra=0 / bframes=8 / b_pyramid=2 / b_adapt=1 / b_bias=0 / direct=3 / weightb=1 / open_gop=0 / weightp=2 / keyint=250 / keyint_min=25 / scenecut=40 / intra_refresh=0 / rc_lookahead=40 / rc=2pass / mbtree=1 / bitrate=2297 / ratetol=1.0 / qcomp=0.60 / qpmin=0 / qpmax=69 / qpstep=4 / cplxblur=20.0 / qblur=0.5 / ip_ratio=1.40 / aq=1:1.00
Default : Yes
Forced : No
Audio
ID : 2
Format : AC-3
Format/Info : Audio Coding 3
Mode extension : CM (complete main)
Format settings, Endianness : Big
Codec ID : A_AC3
Duration : 1h 18mn
Bit rate mode : Constant
Bit rate : 192 Kbps
Channel(s) : 2 channels
Channel positions : Front: L R
Sampling rate : 48.0 KHz
Bit depth : 16 bits
Compression mode : Lossy
Stream size : 107 MiB (8%)
Default : Yes
Forced : No

Скриншот с названием фильма

Скриншоты

[Профиль] [ЛС]
Кто просматривает тему:

Показать сообщения:    

Текущее время: Сегодня 08:33

Часовой пояс: GMT



Вы не можете начинать темы
Вы не можете отвечать на сообщения
Вы не можете редактировать свои сообщения
Вы не можете удалять свои сообщения
Вы не можете голосовать в опросах
Вы не можете прикреплять файлы к сообщениям
Вы не можете скачивать файлы