Мореплавание Солнышкина (Анатолий Петров) [1980, мультфильм, DVB]

 
Автор Сообщение

TorrentFilm ®

Пол:

Стаж: 2 года

Сообщений: 7741



Награды: Нет

Торрент-статистика

Создавать темы 07-Апр-2015 00:02

[Цитировать]

Мореплавание Солнышкина
Страна: СССР, Союзмультфильм
Жанр: мультфильм
Год выпуска: 1980
Продолжительность: 00:16:34
Режиссёр: Анатолий Петров
Описание: мультфильм о том о стремлении ребят овладеть романтической морской профессией. Солнышкин отправляется в Морское Училище, но на учебу его не принимают - слишком мал еще. Расстроенный Солнышкин возвращается обратно и встречает старого капитана, собирающегося на пенсию. Капитан проникся симпатией к целеустремленному пареньку и решил помочь освоить нелегкую профессию моряка. Вскоре капитан отправляется в дальнее плавание и берет с собой на корабль Солнышкина...
Доп. информация:

Релиз группы:
Трансляция спутникового канала:

Качество видео: DVB
Формат видео: MPEG-PS
Видео: MPEG2 Video, 720x576 (4:3), 25 fps, 3600 kbps
Аудио: MPEG Audiо, 2 сh, 48 kHz, 192 kbps

MediaInfo

General
Complete name : D:\Мореплавание Солнышкина. (1980)_DVB by SLuMeP.mpg
Format : MPEG-PS
File size : 459 MiB
Duration : 16mn 34s
Overall bit rate mode : Variable
Overall bit rate : 3 871 Kbps
Video
ID : 224 (0xE0)
Format : MPEG Video
Format version : Version 2
Format profile : Main@Main
Format settings, BVOP : No
Format settings, Matrix : Custom
Format settings, GOP : M=3, N=12
Duration : 16mn 34s
Bit rate mode : Variable
Bit rate : 3 602 Kbps
Maximum bit rate : 5 000 Kbps
Width : 720 pixels
Height : 576 pixels
Display aspect ratio : 4:3
Frame rate : 25.000 fps
Standard : PAL
Color space : YUV
Chroma subsampling : 4:2:0
Bit depth : 8 bits
Scan type : Interlaced
Scan order : Top Field First
Compression mode : Lossy
Bits/(Pixel*Frame) : 0.347
Time code of first frame : 00:00:00:00
Time code source : Group of pictures header
Stream size : 427 MiB (93%)
Audio
ID : 192 (0xC0)
Format : MPEG Audio
Format version : Version 1
Format profile : Layer 2
Duration : 16mn 34s
Bit rate mode : Constant
Bit rate : 192 Kbps
Channel(s) : 2 channels
Sampling rate : 48.0 KHz
Compression mode : Lossy
Stream size : 22.8 MiB (5%)

Скриншоты


[Профиль] [ЛС]
Показать сообщения:    

Текущее время: Сегодня 06:07

Часовой пояс: GMT



Вы не можете начинать темы
Вы не можете отвечать на сообщения
Вы не можете редактировать свои сообщения
Вы не можете удалять свои сообщения
Вы не можете голосовать в опросах
Вы не можете прикреплять файлы к сообщениям
Вы не можете скачивать файлы