Мордекай / Mortdecai (2015) Blu-Ray от BLUEBIRD | iTunes

 
Автор Сообщение

BOSS ®

Пол:

Стаж: 2 года 1 месяц

Сообщений: 3735

Откуда: ODESSA



Награды: 20 (Подробнее)

Mega Seeder 4 (Количество: 1) Top Keeper 2 (Количество: 1) Top Keeper 1 (Количество: 1)
Торрент-статистика

Создавать темы 23-Авг-2015 07:40

[Цитировать]

Информация о фильме
Название: Мордекай
Оригинальное название: Mortdecai
Год выхода: 2015
Жанр: боевик, комедия
Режиссер: Дэвид Кепп
В ролях: Джонни Депп, Гвинет Пэлтроу, Пол Беттани, Юэн МакГрегор, Оливия Манн, Джонатон Пасвольски, Майкл Калкин, Ульрих Томсен, Алек Утгофф, Роб де Гроот
О фильме: В центре сюжета — история Чарльза Мордекая, обходительного арт-дельца и жулика по совместительству, который путешествует по всему миру и с помощью своего неотразимого обаяния пытается раздобыть украденную картину. По слухам, в этом произведении искусства содержится код доступа к банковской ячейке, наполненной нацистским золотом. По ходу Мордекаю приходится улаживать дела с недобрыми русскими, британской разведкой Mi5, международным террористом и со своей умопомрачительно длинноногой женой.


Выпущено: США
Продолжительность: 01:46:42
Перевод: Дублированный [iTunes]
Файл
Формат: m2ts
Качество: Blu-Ray (1080p)
Видео: MPEG-4 AVC, 34649 Кбит/с, 1920x1080, 23.976 кадр/с
Звук: Русский (AC3, 6 ch, 384 Кбит/с), английский (DTS-HD, 8 ch, 4746 Кбит/с)
Размер: 35.3 ГБ
Субтитры: Немецкие, английские
Релиз:

Media Info

Disc Title: MORTDECAI_BLUEBIRD
Disc Size: 37 899 410 147 bytes
Protection: AACS
BD-Java: No
BDInfo: 0.5.8
Notes:
BDINFO HOME:
Cinema Squid
http://www.cinemasquid.com/blu-ray/tools/bdinfo
INCLUDES FORUMS REPORT FOR:
AVS Forum Blu-ray Audio and Video Specifications Thread
http://www.avsforum.com/avs-vb/showthread.php?t=1155731
********************
PLAYLIST: 00000.MPLS
********************
Total Video
Title Codec Length Movie Size Disc Size Bitrate Bitrate Main Audio Track Secondary Audio Track
----- ------ ------- -------------- -------------- ------- ------- ------------------ ---------------------
00000.MPLS AVC 1:46:42 33 596 049 408 37 899 410 147 41,98 34,69 DD AC3 5.1 384Kbps
DISC INFO:
Disc Title: MORTDECAI_BLUEBIRD
Disc Size: 37 899 410 147 bytes
Protection: AACS
BD-Java: No
BDInfo: 0.5.8
PLAYLIST REPORT:
Name: 00000.MPLS
Length: 1:46:42.437 (h:m:s.ms)
Size: 33 596 049 408 bytes
Total Bitrate: 41,98 Mbps
VIDEO:
Codec Bitrate Deion
----- ------- -----------
MPEG-4 AVC Video 34694 kbps 1080p / 23,976 fps / 16:9 / High Profile 4.1
AUDIO:
Codec Language Bitrate Deion
----- -------- ------- -----------
Dolby Digital Audio Russian 384 kbps 5.1 / 48 kHz / 384 kbps / DN -4dB
DTS-HD Master Audio English 4746 kbps 7.1 / 48 kHz / 4746 kbps / 24-bit (DTS Core: 5.1 / 48 kHz / 1509 kbps / 24-bit)
SUBTITLES:
Codec Language Bitrate Deion
----- -------- ------- -----------
Presentation Graphics German 31,899 kbps
Presentation Graphics English 40,616 kbps
FILES:
Name Time In Length Size Total Bitrate
---- ------- ------ ---- -------------
00000.M2TS 0:00:00.000 1:46:42.437 33 596 049 408 41 979
CHAPTERS:
Number Time In Length Avg Video Rate Max 1-Sec Rate Max 1-Sec Time Max 5-Sec Rate Max 5-Sec Time Max 10Sec Rate Max 10Sec Time Avg Frame Size Max Frame Size Max Frame Time
------ ------- ------ -------------- -------------- -------------- -------------- -------------- -------------- -------------- -------------- -------------- --------------
1 0:00:00.000 0:05:03.177 35 501 kbps 40 896 kbps 00:00:35.452 37 019 kbps 00:00:31.489 36 662 kbps 00:04:50.957 185 060 bytes 492 913 bytes 00:00:00.000
2 0:05:03.177 0:06:27.053 36 368 kbps 40 858 kbps 00:05:05.763 36 935 kbps 00:09:03.668 36 676 kbps 00:08:58.663 189 607 bytes 530 827 bytes 00:09:13.636
3 0:11:30.231 0:07:21.315 36 401 kbps 38 660 kbps 00:11:34.568 36 899 kbps 00:11:30.648 36 645 kbps 00:11:38.447 189 781 bytes 439 494 bytes 00:11:48.416
4 0:18:51.547 0:05:11.602 36 425 kbps 37 684 kbps 00:22:41.777 36 667 kbps 00:19:35.382 36 552 kbps 00:19:56.737 189 905 bytes 313 744 bytes 00:22:38.398
5 0:24:03.150 0:05:45.345 36 336 kbps 46 147 kbps 00:24:09.239 38 387 kbps 00:24:05.235 37 083 kbps 00:27:10.045 189 440 bytes 556 195 bytes 00:24:09.906
6 0:29:48.495 0:07:06.300 36 363 kbps 39 722 kbps 00:34:08.755 37 157 kbps 00:34:04.709 36 837 kbps 00:32:02.128 189 582 bytes 554 497 bytes 00:32:15.600
7 0:36:54.795 0:05:55.813 36 386 kbps 41 444 kbps 00:42:44.812 37 590 kbps 00:42:40.724 36 889 kbps 00:42:35.719 189 701 bytes 500 312 bytes 00:41:11.427
8 0:42:50.609 0:07:11.764 36 382 kbps 38 905 kbps 00:42:55.322 36 877 kbps 00:43:11.338 36 657 kbps 00:42:56.282 189 680 bytes 502 871 bytes 00:42:56.323
9 0:50:02.374 0:06:36.312 36 267 kbps 40 872 kbps 00:51:47.938 36 936 kbps 00:55:36.916 36 698 kbps 00:55:31.870 189 080 bytes 429 686 bytes 00:51:22.704
10 0:56:38.686 0:07:08.010 36 434 kbps 39 900 kbps 01:02:25.032 37 020 kbps 01:02:11.144 36 738 kbps 01:01:56.254 189 949 bytes 503 262 bytes 01:02:16.023
11 1:03:46.697 0:06:19.545 36 420 kbps 38 503 kbps 01:09:09.520 36 834 kbps 01:07:48.230 36 646 kbps 01:07:43.225 189 877 bytes 404 645 bytes 01:04:37.206
12 1:10:06.243 0:08:38.059 36 335 kbps 41 026 kbps 01:16:18.115 37 109 kbps 01:16:14.152 36 724 kbps 01:16:09.147 189 435 bytes 384 859 bytes 01:12:13.662
13 1:18:44.302 0:06:11.120 36 238 kbps 40 654 kbps 01:21:39.477 37 206 kbps 01:21:35.515 36 880 kbps 01:21:30.468 188 929 bytes 454 083 bytes 01:19:10.746
14 1:24:55.423 0:04:02.659 36 342 kbps 38 469 kbps 01:28:29.971 36 915 kbps 01:27:50.932 36 658 kbps 01:27:46.010 189 472 bytes 421 417 bytes 01:28:30.930
15 1:28:58.082 0:04:50.164 36 441 kbps 37 499 kbps 01:32:28.584 36 666 kbps 01:33:01.325 36 551 kbps 01:30:25.586 189 988 bytes 301 055 bytes 01:31:51.130
16 1:33:48.247 0:12:54.190 22 877 kbps 42 725 kbps 01:34:36.420 37 572 kbps 01:34:32.416 37 035 kbps 01:34:27.411 119 281 bytes 526 622 bytes 01:45:02.004
STREAM DIAGNOSTICS:
File PID Type Codec Language Seconds Bitrate Bytes Packets
---- --- ---- ----- -------- -------------- -------------- ------------- -----
00000.M2TS 4113 (0x1011) 0x1B AVC 6402,271 34 695 27 765 770 710 150 990 306
00000.M2TS 4352 (0x1100) 0x81 AC3 rus (Russian) 6402,271 384 307 313 664 1 800 666
00000.M2TS 4353 (0x1101) 0x86 DTS-HD MA eng (English) 6402,271 4 746 3 798 321 396 21 636 486
00000.M2TS 4608 (0x1200) 0x90 PGS deu (German) 6402,271 32 25 528 581 149 960
00000.M2TS 4609 (0x1201) 0x90 PGS eng (English) 6402,271 41 32 504 956 187 503
QUICK SUMMARY:
Disc Title: MORTDECAI_BLUEBIRD
Disc Size: 37 899 410 147 bytes
Protection: AACS
BD-Java: No
Playlist: 00000.MPLS
Size: 33 596 049 408 bytes
Length: 1:46:42.437
Total Bitrate: 41,98 Mbps
Video: MPEG-4 AVC Video / 34694 kbps / 1080p / 23,976 fps / 16:9 / High Profile 4.1
Audio: Russian / Dolby Digital Audio / 5.1 / 48 kHz / 384 kbps / DN -4dB
Audio: English / DTS-HD Master Audio / 7.1 / 48 kHz / 4746 kbps / 24-bit (DTS Core: 5.1 / 48 kHz / 1509 kbps / 24-bit)
Subtitle: German / 31,899 kbps
Subtitle: English / 40,616 kbps
********************
PLAYLIST: 00004.MPLS
********************
Total Video
Title Codec Length Movie Size Disc Size Bitrate Bitrate Main Audio Track Secondary Audio Track
----- ------ ------- -------------- -------------- ------- ------- ------------------ ---------------------
00004.MPLS MPEG-2 0:16:33 2 400 221 184 37 899 410 147 19,34 18,00 DD AC3 2.0 192Kbps
DISC INFO:
Disc Title: MORTDECAI_BLUEBIRD
Disc Size: 37 899 410 147 bytes
Protection: AACS
BD-Java: No
BDInfo: 0.5.8
PLAYLIST REPORT:
Name: 00004.MPLS
Length: 0:16:33.075 (h:m:s.ms)
Size: 2 400 221 184 bytes
Total Bitrate: 19,34 Mbps
VIDEO:
Codec Bitrate Deion
----- ------- -----------
MPEG-2 Video 18000 kbps 1080p / 23,976 fps / 16:9
AUDIO:
Codec Language Bitrate Deion
----- -------- ------- -----------
Dolby Digital Audio English 192 kbps 2.0 / 48 kHz / 192 kbps / DN -4dB
Dolby Digital Audio English 192 kbps 2.0 / 48 kHz / 192 kbps / DN -4dB
SUBTITLES:
Codec Language Bitrate Deion
----- -------- ------- -----------
Presentation Graphics English 0,012 kbps
Presentation Graphics English 0,012 kbps
FILES:
Name Time In Length Size Total Bitrate
---- ------- ------ ---- -------------
00005.M2TS 0:00:00.000 0:16:33.075 2 400 221 184 19 336
CHAPTERS:
Number Time In Length Avg Video Rate Max 1-Sec Rate Max 1-Sec Time Max 5-Sec Rate Max 5-Sec Time Max 10Sec Rate Max 10Sec Time Avg Frame Size Max Frame Size Max Frame Time
------ ------- ------ -------------- -------------- -------------- -------------- -------------- -------------- -------------- -------------- -------------- --------------
1 0:00:00.000 0:16:33.075 18 000 kbps 39 277 kbps 00:09:56.762 34 537 kbps 00:09:48.963 33 582 kbps 00:09:47.503 93 844 bytes 608 137 bytes 00:09:53.259
STREAM DIAGNOSTICS:
File PID Type Codec Language Seconds Bitrate Bytes Packets
---- --- ---- ----- -------- -------------- -------------- ------------- -----
00005.M2TS 4113 (0x1011) 0x02 MPEG-2 992,909 18 003 2 234 419 692 12 157 516
00005.M2TS 4352 (0x1100) 0x81 AC3 eng (English) 992,909 192 23 832 576 155 160
00005.M2TS 4353 (0x1101) 0x81 AC3 eng (English) 992,909 192 23 832 576 155 160
00005.M2TS 4608 (0x1200) 0x90 PGS eng (English) 992,909 0 1 532 16
00005.M2TS 4609 (0x1201) 0x90 PGS eng (English) 992,909 0 1 532 16
QUICK SUMMARY:
Disc Title: MORTDECAI_BLUEBIRD
Disc Size: 37 899 410 147 bytes
Protection: AACS
BD-Java: No
Playlist: 00004.MPLS
Size: 2 400 221 184 bytes
Length: 0:16:33.075
Total Bitrate: 19,34 Mbps
Video: MPEG-2 Video / 18000 kbps / 1080p / 23,976 fps / 16:9
Audio: English / Dolby Digital Audio / 2.0 / 48 kHz / 192 kbps / DN -4dB
Audio: English / Dolby Digital Audio / 2.0 / 48 kHz / 192 kbps / DN -4dB
Subtitle: English / 0,012 kbps
Subtitle: English / 0,012 kbps
********************
PLAYLIST: 00005.MPLS
********************
Total Video
Title Codec Length Movie Size Disc Size Bitrate Bitrate Main Audio Track Secondary Audio Track
----- ------ ------- -------------- -------------- ------- ------- ------------------ ---------------------
00005.MPLS MPEG-2 0:12:24 1 798 907 904 37 899 410 147 19,33 18,00 DD AC3 2.0 192Kbps
DISC INFO:
Disc Title: MORTDECAI_BLUEBIRD
Disc Size: 37 899 410 147 bytes
Protection: AACS
BD-Java: No
BDInfo: 0.5.8
PLAYLIST REPORT:
Name: 00005.MPLS
Length: 0:12:24.326 (h:m:s.ms)
Size: 1 798 907 904 bytes
Total Bitrate: 19,33 Mbps
VIDEO:
Codec Bitrate Deion
----- ------- -----------
MPEG-2 Video 17999 kbps 1080p / 23,976 fps / 16:9
AUDIO:
Codec Language Bitrate Deion
----- -------- ------- -----------
Dolby Digital Audio English 192 kbps 2.0 / 48 kHz / 192 kbps / DN -4dB
Dolby Digital Audio English 192 kbps 2.0 / 48 kHz / 192 kbps / DN -4dB
SUBTITLES:
Codec Language Bitrate Deion
----- -------- ------- -----------
Presentation Graphics English 0,016 kbps
Presentation Graphics English 0,016 kbps
FILES:
Name Time In Length Size Total Bitrate
---- ------- ------ ---- -------------
00006.M2TS 0:00:00.000 0:12:24.326 1 798 907 904 19 335
CHAPTERS:
Number Time In Length Avg Video Rate Max 1-Sec Rate Max 1-Sec Time Max 5-Sec Rate Max 5-Sec Time Max 10Sec Rate Max 10Sec Time Avg Frame Size Max Frame Size Max Frame Time
------ ------- ------ -------------- -------------- -------------- -------------- -------------- -------------- -------------- -------------- -------------- --------------
1 0:00:00.000 0:12:24.326 17 999 kbps 41 549 kbps 00:12:12.481 35 946 kbps 00:12:08.352 34 134 kbps 00:10:24.749 93 838 bytes 589 318 bytes 00:09:33.781
STREAM DIAGNOSTICS:
File PID Type Codec Language Seconds Bitrate Bytes Packets
---- --- ---- ----- -------- -------------- -------------- ------------- -----
00006.M2TS 4113 (0x1011) 0x02 MPEG-2 744,244 18 001 1 674 640 680 9 111 737
00006.M2TS 4352 (0x1100) 0x81 AC3 eng (English) 744,244 192 17 862 912 116 295
00006.M2TS 4353 (0x1101) 0x81 AC3 eng (English) 744,244 192 17 862 912 116 295
00006.M2TS 4608 (0x1200) 0x90 PGS eng (English) 744,244 0 1 532 16
00006.M2TS 4609 (0x1201) 0x90 PGS eng (English) 744,244 0 1 532 16
QUICK SUMMARY:
Disc Title: MORTDECAI_BLUEBIRD
Disc Size: 37 899 410 147 bytes
Protection: AACS
BD-Java: No
Playlist: 00005.MPLS
Size: 1 798 907 904 bytes
Length: 0:12:24.326
Total Bitrate: 19,33 Mbps
Video: MPEG-2 Video / 17999 kbps / 1080p / 23,976 fps / 16:9
Audio: English / Dolby Digital Audio / 2.0 / 48 kHz / 192 kbps / DN -4dB
Audio: English / Dolby Digital Audio / 2.0 / 48 kHz / 192 kbps / DN -4dB
Subtitle: English / 0,016 kbps
Subtitle: English / 0,016 kbps

Скриншоты

[Профиль] [ЛС]
Показать сообщения:    

Текущее время: Сегодня 14:16

Часовой пояс: GMT



Вы не можете начинать темы
Вы не можете отвечать на сообщения
Вы не можете редактировать свои сообщения
Вы не можете удалять свои сообщения
Вы не можете голосовать в опросах
Вы не можете прикреплять файлы к сообщениям
Вы не можете скачивать файлы